+ ตอบกลับกระทู้
สรุปผลการค้นหา 1 ถึง 3 จากทั้งหมด 3
  1. #1
    Administrators รูปส่วนตัว Duckload.us
    สมัครเมื่อ
    Dec 2010
    โพสต์
    139,860
    Thanks
    7
    Thanked 146,345 Times in 63,683 Posts

    Lightbulb [เกาหลี]-[Doom at Your Service รักร้ายๆของนายหายนะ Park Bo Young, Seo In Gook, Lee Soo Hyuk, Kang Tae Oh, Shin Do Hyun TH Ep.13-16/End]-WEB-DL.H.264.1080p. [From HD-TV]-[Sound:Thai/Korea]-[Sub:Thai]





    ซีรี่ย์เกาหลี: Doom at Your Service
    ชื่อภาษาไทย: รักร้ายๆของนายหายนะ, ขอพรดาวโลกแตก
    ประเภท: Fantasy, Romance
    จำนวนตอน: 16
    นำแสดงโดย: Park Bo Young, Seo In Gook, Lee Soo Hyuk, Kang Tae Oh, Shin Do Hyun
    ผู้กำกับ: Kwon Young Il
    เขียนบทโดย: Im Mea Ri
    ออกอากาศทางสถานีโทรทัศน์: VIU
    เริ่มออกอากาศ: 8 พฤศจิกายน 2564
    เวลาออกอากาศ: ทุกวันจันทร์ & วันอังคาร เวลา 08:00 น.
    นักแสดง:
    Park Bo Young as Tak Dong Kyung (28, a web novel editor)
    Lee Ye Seo as child Dong Kyung
    Seo In Gook as Myul Mang / Kim Sa Ram
    Lee Soo Hyuk as Cha Joo Ik (33, the head of web novel editing team)
    Kang Tae Oh as Lee Hyun Kyu (29, café owner)
    Shin Do Hyun as Na Ji Na / Lee Hyun (29, web novelist)
    People around Tak Dong Kyung
    Da Won as Tak Sun Kyung (25, Dong Kyung's younger brother)
    Park Jae Joon as child Sun Kyung
    Woo Hee Jin as Kang Soo Ja (48, Kyung sibling's aunt) / Kang Soo Ah (Kyung siblings' late mother)
    People around Myul Mang
    Jung Ji So as So Nyeo Shin / a Goddess
    Life Story - Publishing Team
    Song Jin Woo as Park Chang Shin (46, the CEO)
    Song Joo Hee as Jo Ye Ji (28, the editor/Dong Kyung's best friend)
    Choi So Yoon as Kim Da In (25, editor team member)
    Park Tae In as Park Jung Min (25, newbie of editor team member)
    Life Story - Novelists
    Lee Seung Joon as Jung Dang Myun / Jung Seung Joon (40)
    Heo Jae Ho as Zizo King (47)
    Nam Da Reum as Kwi Gong Ja (Ghost Prince) / Park Young (18)
    Oh Yun Ah as Dalgona (40)
    Son Woo Hyun as Siberia (30)
    Cameos
    Kim Baek Ri as Jo Dae Han's wife (ep 1-2)
    Kim Ji Suk as Jo Dae Han (ep 2-3)
    Han Ye Ri as a patient (ep 3, 6)
    Kwon Soo Hyun as Dong Kyung's blind-date partner (ep 6)
    Lee Hwang Ui as a tree passerby (ep 9)
    Lee Shi Young as medical receptionist (ep 11)
    Shin Moon Sung as arsonist (ep 12)
    Jo Wan Ki as murderer (ep 12)
    Son Young Soon as flower peddler (ep 14)
    Sysopsis: ละครเรื่องนี้เล่าถึงหญิงสาวที่อยากใช้ชีวิตอย่างมีค วามสุขในเวลาที่เหลืออยู่กับชายหนุ่มที่เคยผ่านหายนะ ที่ดำมืดที่สุด โดยถ่ายทอดผ่านคนสองคนที่แตกต่างกัน แต่เมื่อต้องเชิญความตาย ทั้งคู่ก็เข้าใจถึงความหมายที่แท้จริงของชีวิตในที่ส ุด
    ทักดงคยอง (พัคโบยอง) เป็นบรรณาธิการในสำนักพิมพ์นิยายออนไลน์ ที่มีชีวิตปกติเหมือนคนอื่นๆทั่วไป จนวันนึงเธอพบว่าเธอป่วยเป็นมะเร็งในสมอง ด้วยความบังเอิญ เธอดันเผลอไปเรียก มยอลมัง (ซออินกุก) ผู้ส่งสารที่เป็นเหมือนตัวแทนระหว่างพระเจ้าและมนุษย ์มา เธอตัดสินใจทำสัญญา 100 วันกับเขา เพื่อที่จะได้ใช้ชีวิตอย่างที่ต้องการ โดยแลกกับทุกอย่างในชีวิต มาติดตามชมกันได้ในซีรีย์เกาหลี Doom at Your Service รักร้ายๆของนายหายนะ

    General
    Unique ID : 90426933501231700711171833426481615640 (0x44079809E3E8BCDBBE1972377D359318)
    Complete name : Foom at Your Service รักร้ายๆของนายหายนะDoom.at.Your.Service.2021.S01E1 6.END.1080p.H264.AAC.WEB-DL.mkv
    Format : Matroska
    Format version : Version 4
    File size : 2.46 GiB
    Duration : 1 h 7 min
    Overall bit rate mode : Variable
    Overall bit rate : 5 253 kb/s
    Encoded date : UTC 2021-11-30 06:41:01
    Writing application : mkvmerge v19.0.0 ('Brave Captain') 64-bit
    Writing library : libebml v1.3.5 + libmatroska v1.4.8

    Video
    ID : 1
    Format : AVC
    Format/Info : Advanced Video Codec
    Format profile : [email protected]
    Format settings : CABAC / 1 Ref Frames
    Format settings, CABAC : Yes
    Format settings, Reference fra : 1 frame
    Format settings, GOP : M=1, N=60
    Codec ID : V_MPEG4/ISO/AVC
    Duration : 1 h 7 min
    Bit rate mode : Variable
    Bit rate : 4 789 kb/s
    Maximum bit rate : 5 500 kb/s
    Width : 1 920 pixels
    Height : 1 080 pixels
    Display aspect ratio : 16:9
    Frame rate mode : Constant
    Frame rate : 29.970 (30000/1001) FPS
    Color space : YUV
    Chroma subsampling : 4:2:0
    Bit depth : 8 bits
    Scan type : Progressive
    Bits/(Pixel*Frame) : 0.077
    Stream size : 2.24 GiB (91%)
    Default : Yes
    Forced : No

    Audio #1
    ID : 2
    Format : AC-3
    Format/Info : Audio Coding 3
    Commercial name : Dolby Digital
    Codec ID : A_AC3
    Duration : 1 h 7 min
    Bit rate mode : Constant
    Bit rate : 192 kb/s
    Channel(s) : 2 channels
    Channel layout : L R
    Sampling rate : 48.0 kHz
    Frame rate : 31.250 FPS (1536 SPF)
    Compression mode : Lossy
    Stream size : 92.1 MiB (4%)
    Language : Thai
    Service kind : Complete Main
    Default : Yes
    Forced : No

    Audio #2
    ID : 3
    Format : AAC LC
    Format/Info : Advanced Audio Codec Low Complexity
    Codec ID : A_AAC-2
    Duration : 1 h 7 min
    Bit rate : 256 kb/s
    Channel(s) : 2 channels
    Channel layout : L R
    Sampling rate : 48.0 kHz
    Frame rate : 46.875 FPS (1024 SPF)
    Compression mode : Lossy
    Stream size : 123 MiB (5%)
    Language : Korean
    Default : No
    Forced : No

    Text #1
    ID : 4
    Format : UTF-8
    Codec ID : S_TEXT/UTF8
    Codec ID/Info : UTF-8 Plain Text
    Duration : 1 h 5 min
    Bit rate : 156 b/s
    Count of elements : 1076
    Stream size : 74.7 KiB (0%)
    Language : Thai
    Default : Yes
    Forced : No

    Text #2
    ID : 5
    Format : PGS
    Muxing mode : zlib
    Codec ID : S_HDMV/PGS
    Codec ID/Info : Picture based subtitle format used on BDs/HD-DVDs
    Duration : 1 h 5 min
    Bit rate : 36.7 kb/s
    Count of elements : 2152
    Stream size : 17.1 MiB (1%)
    Language : Thai
    Default : No
    Forced : No



    Doom.at.Your.Service.2021.S01E16.END.1080p.H264.AA C.WEB-DL.mkv
    http://www.filecondo.com/dl.php?f=z0b72e1MSL2v

    Doom.at.Your.Service.2021.S01E15.1080p.H264.AAC.WE B-DL.mkv
    http://www.filecondo.com/dl.php?f=faac141MSL1x

    Doom.at.Your.Service.2021.S01E14.1080p.H264.AAC.WE B-DL.mkv
    http://www.filecondo.com/dl.php?f=46b5931MSL0x

    Doom.at.Your.Service.2021.S01E13.1080p.H264.AAC.WE B-DL.mkv
    http://www.filecondo.com/dl.php?f=g4865b1MSKYR

    Doom.at.Your.Service.2021.S01E12.1080p.H264.AAC.WE B-DL.mkv
    http://www.filecondo.com/dl.php?f=Je54d91MSKXG

    Doom.at.Your.Service.2021.S01E11.1080p.H264.AAC.WE B-DL.mkv
    http://www.filecondo.com/dl.php?f=Qc44121MSKWK

    Doom.at.Your.Service.2021.S01E10.1080p.H264.AAC.WE B-DL.mkv
    http://www.filecondo.com/dl.php?f=06c36f1MSKVd

    Doom.at.Your.Service.2021.S01E09.1080p.H264.AAC.WE B-DL.mkv
    http://www.filecondo.com/dl.php?f=Hb8cb01MSKUo

    Doom.at.Your.Service.2021.S01E08.1080p.H264.AAC.WE B-DL.mkv
    http://www.filecondo.com/dl.php?f=y291621MSKRV

    Doom.at.Your.Service.2021.S01E07.1080p.H264.AAC.WE B-DL.mkv
    http://www.filecondo.com/dl.php?f=Saaadb1MSKQ9

    Doom.at.Your.Service.2021.S01E06.1080p.H264.AAC.WE B-DL.mkv
    http://www.filecondo.com/dl.php?f=ddb7f11MSKOY

    Doom.at.Your.Service.2021.S01E05.1080p.H264.AAC.WE B-DL.mkv
    http://www.filecondo.com/dl.php?f=De0c611MSKO8

    4 http://www.filecondo.com/dl.php?f=I286f21MTbsS

    Doom.at.Your.Service.2021.S01E03.1080p.H264.AAC.WE B-DL.mkv
    http://www.filecondo.com/dl.php?f=h691531MSKN6

    Doom.at.Your.Service.2021.S01E02.1080p.H264.AAC.WE B-DL.mkv
    http://www.filecondo.com/dl.php?f=e24d281MSKMF

    1 http://www.filecondo.com/dl.php?f=J9a6021MTbrS

  2. #2
    Senior Member
    สมัครเมื่อ
    Aug 2012
    โพสต์
    509
    Thanks
    0
    Thanked 0 Times in 0 Posts
    ขอบคุณมากครับ

  3. #3
    Senior Member
    สมัครเมื่อ
    Jun 2018
    โพสต์
    100
    Thanks
    0
    Thanked 0 Times in 0 Posts
    ขอบคุณมากๆครับ

+ ตอบกลับกระทู้

ข้อมูลกระทู้

Users Browsing this Thread

ในขณะนี้มี 1 ท่านดูกระทู้อยู่. (0 สมาชิกและ 1 ผู้เยี่ยมชม)

     

กฎการโพสต์ข้อความ

  • ท่าน ไม่สามารถ ตั้งกระทู้ใหม่ได้
  • ท่าน ไม่สามารถ ตอบกระทู้ได้
  • ท่าน ไม่สามารถ แนบไฟล์ได้
  • ท่าน ไม่สามารถ แก้ไขข้อความโพสต์ได้
  • BB code สถานะ เปิด
  • Smilies สถานะ เปิด
  • [IMG] สถานะ เปิด
  • HTML สถานะ ปิด