+ ตอบกลับกระทู้
สรุปผลการค้นหา 1 ถึง 4 จากทั้งหมด 4
  1. #1
    Administrators รูปส่วนตัว Duckload.us
    สมัครเมื่อ
    Dec 2010
    โพสต์
    133,723
    Thanks
    7
    Thanked 137,859 Times in 60,869 Posts

    Thumbs up [ฝรั่ง]-[NETFLIX] Money Heist (2021) ทรชนคนปล้นโลก Season 5 EP1-10 จบ-[WEB-DL.H.264.1080p]-[พากย์ไทย บรรยายไทย]









    Format : Matroska
    Format version : Version 4 / Version 2
    File size : 2.71 GiB
    Duration : 53 min 58 s
    Overall bit rate : 7 183 kb/s
    Movie name : Money Heist (2021) S05 @Argon
    Encoded date : UTC 2021-12-03 11:49:07
    Writing application : mkvmerge v63.0.0 ('Everything') 64-bit
    Writing library : libebml v1.4.2 + libmatroska v1.6.4

    Video
    ID : 1
    Format : AVC
    Format/Info : Advanced Video Codec
    Format profile : [email protected]
    Format settings, CABAC : Yes
    Format settings, RefFrames : 4 frames
    Codec ID : V_MPEG4/ISO/AVC
    Duration : 53 min 58 s
    Bit rate : 4 833 kb/s
    Width : 1 920 pixels
    Height : 1 080 pixels
    Display aspect ratio : 16:9
    Frame rate mode : Constant
    Frame rate : 24.000 FPS
    Color space : YUV
    Chroma subsampling : 4:2:0
    Bit depth : 8 bits
    Scan type : Progressive
    Bits/(Pixel*Frame) : 0.097
    Stream size : 1.82 GiB (67%)
    Default : Yes
    Forced : No

    Audio #1
    ID : 2
    Format : E-AC-3
    Format/Info : Enhanced Audio Coding 3
    Format profile : E-AC-3+Atmos / E-AC-3
    Format settings, Endianness : Big
    Codec ID : A_EAC3
    Duration : 53 min 58 s
    Bit rate mode : Constant
    Bit rate : 768 kb/s
    Channel(s) : 15 objects / 6 channels
    Channel positions : 15 objects / Front: L C R, Side: L R, LFE
    Sampling rate : 48.0 kHz
    Frame rate : 187.500 FPS (256 SPF)
    Compression mode : Lossy
    Delay relative to video : -83 ms
    Stream size : 296 MiB (11%)
    Title : Thai-DDP 5.1
    Language : Thai
    Service kind : Complete Main
    Default : Yes
    Forced : Yes

    Audio #2
    ID : 3
    Format : E-AC-3
    Format/Info : Enhanced Audio Coding 3
    Format profile : E-AC-3+Atmos / E-AC-3
    Format settings, Endianness : Big
    Codec ID : A_EAC3
    Duration : 53 min 58 s
    Bit rate mode : Constant
    Bit rate : 768 kb/s
    Channel(s) : 15 objects / 6 channels
    Channel positions : 15 objects / Front: L C R, Side: L R, LFE
    Sampling rate : 48.0 kHz
    Frame rate : 187.500 FPS (256 SPF)
    Compression mode : Lossy
    Delay relative to video : -83 ms
    Stream size : 296 MiB (11%)
    Title : Spanish-DDP 5.1
    Language : Spanish
    Service kind : Complete Main
    Default : Yes
    Forced : No

    Audio #3
    ID : 4
    Format : E-AC-3
    Format/Info : Enhanced Audio Coding 3
    Format profile : E-AC-3+Atmos / E-AC-3
    Format settings, Endianness : Big
    Codec ID : A_EAC3
    Duration : 53 min 58 s
    Bit rate mode : Constant
    Bit rate : 768 kb/s
    Channel(s) : 15 objects / 6 channels
    Channel positions : 15 objects / Front: L C R, Side: L R, LFE
    Sampling rate : 48.0 kHz
    Frame rate : 187.500 FPS (256 SPF)
    Compression mode : Lossy
    Delay relative to video : -83 ms
    Stream size : 296 MiB (11%)
    Title : English-DDP 5.1
    Language : English
    Service kind : Complete Main
    Default : Yes
    Forced : No

    Text #1
    ID : 5
    Format : PGS
    Muxing mode : zlib
    Codec ID : S_HDMV/PGS
    Codec ID/Info : Picture based subtitle format used on BDs/HD-DVDs
    Duration : 51 min 53 s
    Bit rate : 2 250 b/s
    Count of elements : 48
    Stream size : 855 KiB (0%)
    Title : Thai-FORCED PGS From Original NETFLIX
    Language : Thai
    Default : Yes
    Forced : Yes

    Text #2
    ID : 6
    Format : PGS
    Muxing mode : zlib
    Codec ID : S_HDMV/PGS
    Codec ID/Info : Picture based subtitle format used on BDs/HD-DVDs
    Duration : 51 min 53 s
    Bit rate : 56.7 kb/s
    Count of elements : 1192
    Stream size : 21.1 MiB (1%)
    Title : Thai-PGS From Original NETFLIX
    Language : Thai
    Default : Yes
    Forced : No

    Text #3
    ID : 7
    Format : VobSub
    Muxing mode : zlib
    Codec ID : S_VOBSUB
    Codec ID/Info : Picture based subtitle format used on DVDs
    Duration : 51 min 53 s
    Bit rate : 11.2 kb/s
    Count of elements : 596
    Stream size : 4.14 MiB (0%)
    Title : Thai-VOBSUB From Original NETFLIX
    Language : Thai
    Default : Yes
    Forced : No

    Text #4
    ID : 8
    Format : UTF-8
    Codec ID : S_TEXT/UTF8
    Codec ID/Info : UTF-8 Plain Text
    Duration : 51 min 34 s
    Bit rate : 52 b/s
    Count of elements : 572
    Stream size : 19.8 KiB (0%)
    Title : English-SRT
    Language : English
    Default : Yes
    Forced : No

    :::::::::::::::::::::::::::::::::
    credit:Argon

    Download:filecondo
    01 http://www.filecondo.com/dl.php?f=040c2f1MTOjF
    02 http://www.filecondo.com/dl.php?f=G0dbfc1MTOmh
    03 http://www.filecondo.com/dl.php?f=7d170b1MTOnx
    04 http://www.filecondo.com/dl.php?f=Bed5d81MTOox
    05 http://www.filecondo.com/dl.php?f=r721231MTOsH
    06 http://www.filecondo.com/dl.php?f=528e111MTOeS
    07 http://www.filecondo.com/dl.php?f=Gf824c1MTOg9
    08 http://www.filecondo.com/dl.php?f=S287b61MTOgU
    09 http://www.filecondo.com/dl.php?f=y120a51MTOhH
    10 http://www.filecondo.com/dl.php?f=6373951MTOiT

    Download:cornfile
    Money.Heist.2021.S05E06.1080p.NF.APP-DL.DDP5.1.h264.mkv - 2.7 GB
    Money.Heist.2021.S05E07.1080p.NF.APP-DL.DDP5.1.h264.mkv - 3.1 GB
    Money.Heist.2021.S05E08.1080p.NF.APP-DL.DDP5.1.h264.mkv - 2.6 GB
    Money.Heist.2021.S05E09.1080p.NF.APP-DL.DDP5.1.h264.mkv - 2.3 GB
    Money.Heist.2021.S05E10.1080p.NF.APP-DL.DDP5.1.h264.mkv - 4.0 GB
    Money.Heist.S05E01.The.End.of.the.Road.1080p.NF.WE B-DL.DDP5.1.Atmos.HDR.HEVC-MESSI.mkv - 2.5 GB
    Money.Heist.S05E02.Do.You.Believe.in.Reincarnation .1080p.NF.WEB-DL.DDP5.1.Atmos.HDR.HEVC-MESSI.mkv - 2.6 GB
    Money.Heist.S05E03.Welcome.to.the.Spectacle.of.Lif e.1080p.NF.WEB-DL.DDP5.1.Atmos.HDR.HEVC-MESSI.mkv - 2.5 GB
    Money.Heist.S05E04.Your.Place.in.Heaven.1080p.NF.W EB-DL.DDP5.1.Atmos.HDR.HEVC-MESSI.mkv - 2.6 GB
    Money.Heist.S05E05.Live.Many.Lives.1080p.NF.WEB-DL.DDP5.1.Atmos.HDR.HEVC-MESSI.mkv - 2.8 GB

  2. The Following 2 Users Say Thank You to Duckload.us For This Useful Post:

    sawara (12-06-2021), Wesker_TOT (12-06-2021)

  3. #2
    Senior Member
    สมัครเมื่อ
    Dec 2013
    โพสต์
    3,423
    Thanks
    5,326
    Thanked 0 Times in 0 Posts
    ขอบคุณครับ...

  4. #3
    Senior Member
    สมัครเมื่อ
    Dec 2013
    โพสต์
    541
    Thanks
    486
    Thanked 0 Times in 0 Posts
    ขอบคุณครับบ

  5. #4
    Senior Member
    สมัครเมื่อ
    Jul 2012
    โพสต์
    7,829
    Thanks
    0
    Thanked 0 Times in 0 Posts
    ขอบคุณมากจ้า

+ ตอบกลับกระทู้

ข้อมูลกระทู้

Users Browsing this Thread

ในขณะนี้มี 1 ท่านดูกระทู้อยู่. (0 สมาชิกและ 1 ผู้เยี่ยมชม)

     

กฎการโพสต์ข้อความ

  • ท่าน ไม่สามารถ ตั้งกระทู้ใหม่ได้
  • ท่าน ไม่สามารถ ตอบกระทู้ได้
  • ท่าน ไม่สามารถ แนบไฟล์ได้
  • ท่าน ไม่สามารถ แก้ไขข้อความโพสต์ได้
  • BB code สถานะ เปิด
  • Smilies สถานะ เปิด
  • [IMG] สถานะ เปิด
  • HTML สถานะ ปิด