+ ตอบกลับกระทู้
สรุปผลการค้นหา 1 ถึง 5 จากทั้งหมด 5
  1. #1
    Administrators รูปส่วนตัว Duckload.us
    สมัครเมื่อ
    Dec 2010
    โพสต์
    133,673
    Thanks
    7
    Thanked 137,760 Times in 60,839 Posts

    Thumbs up [ฝรั่ง]-Escape Room Tournament Of Champions (2021) กักห้อง เกมโหด 2 พากย์ไทย 5.1 -Remux.H.264.1080p. [Rip]-[พากย์ไทย บรรยายไทย]



    หลังรอดชีวิตมาจากเหตุการณ์ในภาคแรก โซอี้ (เทย์เลอร์ รัสเซล) และเบน (โลแกน มิลเลอร์) ก็ได้กลับมาอีกครั้ง ด้วยความมุ่งมั่นที่จะหาคำตอบของสิ่งที่อยู่เบื้องหล ังความชั่วร้ายเกมโรคจิตของไมนอส คอร์ปอเรชั่น

    Format : Matroska
    Format version : Version 4
    File size : 5.09 GiB
    Duration : 1 h 35 min
    Overall bit rate : 7 609 kb/s
    Encoded date : UTC 2021-12-07 08:33:58
    Writing application : mkvmerge v47.0.0 ('Black Flag') 64-bit
    Writing library : libebml v1.3.10 + libmatroska v1.5.2

    Video
    ID : 1
    Format : AVC
    Format/Info : Advanced Video Codec
    Format profile : [email protected]
    Format settings : CABAC / 5 Ref Frames
    Format settings, CABAC : Yes
    Format settings, Reference : 5 frames
    Codec ID : V_MPEG4/ISO/AVC
    Duration : 1 h 35 min
    Bit rate : 6 568 kb/s
    Width : 1 920 pixels
    Height : 800 pixels
    Display aspect ratio : 2.40:1
    Frame rate mode : Constant
    Frame rate : 23.976 (24000/1001) FPS
    Color space : YUV
    Chroma subsampling : 4:2:0
    Bit depth : 8 bits
    Scan type : Progressive
    Bits/(Pixel*Frame) : 0.178
    Stream size : 4.39 GiB (86%)
    Default : Yes
    Forced : No
    Color range : Limited
    Color primaries : BT.709
    Transfer characteristics : BT.709
    Matrix coefficients : BT.709

    Audio #1
    ID : 2
    Format : AC-3
    Format/Info : Audio Coding 3
    Commercial name : Dolby Digital
    Codec ID : A_AC3
    Duration : 1 h 35 min
    Bit rate mode : Constant
    Bit rate : 384 kb/s
    Channel(s) : 6 channels
    Channel layout : L R C LFE Ls Rs
    Sampling rate : 48.0 kHz
    Frame rate : 31.250 FPS (1536 SPF)
    Compression mode : Lossy
    Stream size : 263 MiB (5%)
    Title : English
    Language : English
    Service kind : Complete Main
    Default : No
    Forced : No

    Audio #2
    ID : 3
    Format : AC-3
    Format/Info : Audio Coding 3
    Commercial name : Dolby Digital
    Codec ID : A_AC3
    Duration : 1 h 35 min
    Bit rate mode : Constant
    Bit rate : 640 kb/s
    Channel(s) : 6 channels
    Channel layout : L R C LFE Ls Rs
    Sampling rate : 48.0 kHz
    Frame rate : 31.250 FPS (1536 SPF)
    Compression mode : Lossy
    Delay relative to video : 24 ms
    Stream size : 438 MiB (8%)
    Language : Thai
    Service kind : Complete Main
    Default : Yes
    Forced : No

    Text #1
    ID : 4
    Format : UTF-8
    Codec ID : S_TEXT/UTF8
    Codec ID/Info : UTF-8 Plain Text
    Duration : 1 h 28 min
    Bit rate : 65 b/s
    Count of elements : 1330
    Stream size : 42.6 KiB (0%)
    Title : English [SDH]
    Language : English
    Default : No
    Forced : No

    Text #2
    ID : 5
    Format : UTF-8
    Codec ID : S_TEXT/UTF8
    Codec ID/Info : UTF-8 Plain Text
    Duration : 1 h 34 min
    Bit rate : 50 b/s
    Count of elements : 1288
    Stream size : 35.2 KiB (0%)
    Title : French
    Language : French
    Default : No
    Forced : No

    Text #3
    ID : 6
    Format : PGS
    Muxing mode : zlib
    Codec ID : S_HDMV/PGS
    Codec ID/Info : Picture based subtitle format used on BDs/HD-DVDs
    Duration : 1 h 34 min
    Bit rate : 31.0 kb/s
    Count of elements : 2801
    Stream size : 21.0 MiB (0%)
    Language : Thai
    Default : Yes
    Forced : No





    Download:filecondo
    http://www.filecondo.com/dl.php?f=ef6ea81MUAjE
    Download:cornfile
    https://www.cornfile.com/mepycnshto1s

  2. The Following 5 Users Say Thank You to Duckload.us For This Useful Post:

    bigbang06 (12-07-2021), Jodz14 (12-08-2021), masaomi (12-08-2021), Tellmon (12-10-2021), Wesker_TOT (12-08-2021)

  3. #2
    Senior Member
    สมัครเมื่อ
    Dec 2013
    โพสต์
    3,414
    Thanks
    5,318
    Thanked 0 Times in 0 Posts
    ขอบคุณครับ...

  4. #3
    Senior Member
    สมัครเมื่อ
    Jul 2012
    โพสต์
    7,824
    Thanks
    0
    Thanked 0 Times in 0 Posts
    ขอบคุณมากจ้า

  5. #4
    Member
    สมัครเมื่อ
    Jul 2013
    โพสต์
    53
    Thanks
    0
    Thanked 0 Times in 0 Posts
    ขอบคุณมากจ้า

  6. #5
    Senior Member
    สมัครเมื่อ
    May 2012
    โพสต์
    269
    Thanks
    0
    Thanked 0 Times in 0 Posts
    Confile ลิ้งค์เสียครับ

+ ตอบกลับกระทู้

ข้อมูลกระทู้

Users Browsing this Thread

ในขณะนี้มี 1 ท่านดูกระทู้อยู่. (0 สมาชิกและ 1 ผู้เยี่ยมชม)

     

กฎการโพสต์ข้อความ

  • ท่าน ไม่สามารถ ตั้งกระทู้ใหม่ได้
  • ท่าน ไม่สามารถ ตอบกระทู้ได้
  • ท่าน ไม่สามารถ แนบไฟล์ได้
  • ท่าน ไม่สามารถ แก้ไขข้อความโพสต์ได้
  • BB code สถานะ เปิด
  • Smilies สถานะ เปิด
  • [IMG] สถานะ เปิด
  • HTML สถานะ ปิด