+ ตอบกลับกระทู้
สรุปผลการค้นหา 1 ถึง 1 จากทั้งหมด 1
  1. #1
    Administrators รูปส่วนตัว Duckload.us
    สมัครเมื่อ
    Dec 2010
    โพสต์
    133,553
    Thanks
    7
    Thanked 137,645 Times in 60,796 Posts

    Lightbulb [ฝรั่ง]-[NETFLIX] Super Crooks (TV Series 2021) ซูเปอร์ครูกส์ รวมพลซ่ามหาโจร Season 1-Blu-ray.H.264.1080p. [Master]-[พากย์ไทย]



    Format : Matroska
    Format version : Version 4 / Version 2
    File size : 1 023 MiB
    Duration : 24 min 34 s
    Overall bit rate mode : Variable
    Overall bit rate : 5 819 kb/s
    Movie name : Super Crooks (TV Series 2021) S01 @Argon
    Encoded date : UTC 2021-11-28 09:31:22
    Writing application : mkvmerge v63.0.0 ('Everything') 64-bit
    Writing library : libebml v1.4.2 + libmatroska v1.6.4

    Video
    ID : 1
    Format : AVC
    Format/Info : Advanced Video Codec
    Format profile : [email protected]
    Format settings, CABAC : Yes
    Format settings, RefFrames : 4 frames
    Codec ID : V_MPEG4/ISO/AVC
    Duration : 24 min 33 s
    Bit rate mode : Variable
    Bit rate : 3 858 kb/s
    Maximum bit rate : 20.0 Mb/s
    Width : 1 920 pixels
    Height : 1 080 pixels
    Display aspect ratio : 16:9
    Frame rate mode : Constant
    Frame rate : 23.976 (24000/1001) FPS
    Color space : YUV
    Chroma subsampling : 4:2:0
    Bit depth : 8 bits
    Scan type : Progressive
    Bits/(Pixel*Frame) : 0.078
    Stream size : 678 MiB (66%)
    Writing library : x264 core 148 r2727 7d026e8
    Encoding settings : cabac=1 / ref=4 / deblock=1:0:0 / analyse=0x3:0x111 / me=umh / subme=10 / psy=1 / psy_rd=1.00:0.00 / mixed_ref=1 / me_range=120 / chroma_me=1 / trellis=2 / 8x8dct=1 / cqm=0 / deadzone=21,11 / fast_pskip=1 / chroma_qp_offset=-2 / threads=8 / lookahead_threads=2 / sliced_threads=0 / nr=0 / decimate=1 / interlaced=0 / bluray_compat=0 / stitchable=1 / constrained_intra=0 / bframes=16 / b_pyramid=2 / b_adapt=2 / b_bias=0 / direct=3 / weightb=1 / open_gop=0 / weightp=2 / keyint=240 / keyint_min=121 / scenecut=0 / intra_refresh=0 / rc_lookahead=240 / rc=crf / mbtree=1 / crf=19.0 / qcomp=0.50 / qpmin=6 / qpmax=51 / qpstep=4 / vbv_maxrate=20000 / vbv_bufsize=25000 / crf_max=0.0 / nal_hrd=vbr / filler=0 / ip_ratio=1.40 / aq=1:0.80
    Default : Yes
    Forced : No

    Audio #1
    ID : 2
    Format : E-AC-3
    Format/Info : Enhanced Audio Coding 3
    Format settings, Endianness : Big
    Codec ID : A_EAC3
    Duration : 24 min 34 s
    Bit rate mode : Constant
    Bit rate : 640 kb/s
    Channel(s) : 6 channels
    Channel positions : Front: L C R, Side: L R, LFE
    Sampling rate : 48.0 kHz
    Frame rate : 187.500 FPS (256 SPF)
    Compression mode : Lossy
    Stream size : 112 MiB (11%)
    Title : Thai-DDP 5.1
    Language : Thai
    Service kind : Complete Main
    Default : Yes
    Forced : Yes

    Audio #2
    ID : 3
    Format : E-AC-3
    Format/Info : Enhanced Audio Coding 3
    Format settings, Endianness : Big
    Codec ID : A_EAC3
    Duration : 24 min 34 s
    Bit rate mode : Constant
    Bit rate : 640 kb/s
    Channel(s) : 6 channels
    Channel positions : Front: L C R, Side: L R, LFE
    Sampling rate : 48.0 kHz
    Frame rate : 187.500 FPS (256 SPF)
    Compression mode : Lossy
    Stream size : 112 MiB (11%)
    Title : Japanese-DDP 5.1
    Language : Japanese
    Service kind : Complete Main
    Default : Yes
    Forced : No

    Audio #3
    ID : 4
    Format : E-AC-3
    Format/Info : Enhanced Audio Coding 3
    Format settings, Endianness : Big
    Codec ID : A_EAC3
    Duration : 24 min 34 s
    Bit rate mode : Constant
    Bit rate : 640 kb/s
    Channel(s) : 6 channels
    Channel positions : Front: L C R, Side: L R, LFE
    Sampling rate : 48.0 kHz
    Frame rate : 187.500 FPS (256 SPF)
    Compression mode : Lossy
    Stream size : 112 MiB (11%)
    Title : English-DDP 5.1
    Language : English
    Service kind : Complete Main
    Default : Yes
    Forced : No

    Text #1
    ID : 5
    Format : PGS
    Muxing mode : zlib
    Codec ID : S_HDMV/PGS
    Codec ID/Info : Picture based subtitle format used on BDs/HD-DVDs
    Duration : 23 min 40 s
    Bit rate : 3 172 b/s
    Count of elements : 54
    Stream size : 550 KiB (0%)
    Title : Thai-FORCED PGS From Original NETFLIX
    Language : Thai
    Default : Yes
    Forced : Yes

    Text #2
    ID : 6
    Format : PGS
    Muxing mode : zlib
    Codec ID : S_HDMV/PGS
    Codec ID/Info : Picture based subtitle format used on BDs/HD-DVDs
    Duration : 23 min 40 s
    Bit rate : 49.9 kb/s
    Count of elements : 642
    Stream size : 8.46 MiB (1%)
    Title : Thai-PGS From Original NETFLIX
    Language : Thai
    Default : Yes
    Forced : No

    Text #3
    ID : 7
    Format : VobSub
    Muxing mode : zlib
    Codec ID : S_VOBSUB
    Codec ID/Info : Picture based subtitle format used on DVDs
    Duration : 23 min 40 s
    Bit rate : 9 739 b/s
    Count of elements : 321
    Stream size : 1.65 MiB (0%)
    Title : Thai-VOBSUB From Original NETFLIX
    Language : Thai
    Default : Yes
    Forced : No

    Text #4
    ID : 8
    Format : UTF-8
    Codec ID : S_TEXT/UTF8
    Codec ID/Info : UTF-8 Plain Text
    Duration : 23 min 14 s
    Bit rate : 47 b/s
    Count of elements : 289
    Stream size : 8.02 KiB (0%)
    Title : English-SRT
    Language : English
    Default : Yes

    Cr.Argon

    Super.Crooks.2021.S01E13.1080p.NF.APP-DL.DDP5.1.h264.mkv
    http://www.filecondo.com/dl.php?f=J7bc2c1MRJrO

    Super.Crooks.2021.S01E12.1080p.NF.APP-DL.DDP5.1.h264.mkv
    http://www.filecondo.com/dl.php?f=m6d79e1MRJqP

    Super.Crooks.2021.S01E11.1080p.NF.APP-DL.DDP5.1.h264.mkv
    http://www.filecondo.com/dl.php?f=N504081MRJpR

    Super.Crooks.2021.S01E10.1080p.NF.APP-DL.DDP5.1.h264.mkv
    http://www.filecondo.com/dl.php?f=Oc85ca1MRJoT

    Super.Crooks.2021.S01E09.1080p.NF.APP-DL.DDP5.1.h264.mkv
    http://www.filecondo.com/dl.php?f=p5374a1MRJnW

    Super.Crooks.2021.S01E08.1080p.NF.APP-DL.DDP5.1.h264.mkv
    http://www.filecondo.com/dl.php?f=S883781MRJmX

    Super.Crooks.2021.S01E07.1080p.NF.APP-DL.DDP5.1.h264.mkv
    http://www.filecondo.com/dl.php?f=q1c4fb1MRJlY

    Super.Crooks.2021.S01E06.1080p.NF.APP-DL.DDP5.1.h264.mkv
    http://www.filecondo.com/dl.php?f=uc839b1MRJl2

    Super.Crooks.2021.S01E05.1080p.NF.APP-DL.DDP5.1.h264.mkv
    http://www.filecondo.com/dl.php?f=ad7c161MRJk4

    Super.Crooks.2021.S01E04.1080p.NF.APP-DL.DDP5.1.h264.mkv
    http://www.filecondo.com/dl.php?f=mee1dc1MRJj8

    Super.Crooks.2021.S01E03.1080p.NF.APP-DL.DDP5.1.h264.mkv
    http://www.filecondo.com/dl.php?f=Yd35221MRJid

    Super.Crooks.2021.S01E02.1080p.NF.APP-DL.DDP5.1.h264.mkv
    http://www.filecondo.com/dl.php?f=J3b06c1MRJhc

    Super.Crooks.2021.S01E01.1080p.NF.APP-DL.DDP5.1.h264.mkv
    http://www.filecondo.com/dl.php?f=je84331MRJge

  2. The Following User Says Thank You to Duckload.us For This Useful Post:

    aemjan (12-16-2021)

+ ตอบกลับกระทู้

ข้อมูลกระทู้

Users Browsing this Thread

ในขณะนี้มี 1 ท่านดูกระทู้อยู่. (0 สมาชิกและ 1 ผู้เยี่ยมชม)

     

กฎการโพสต์ข้อความ

  • ท่าน ไม่สามารถ ตั้งกระทู้ใหม่ได้
  • ท่าน ไม่สามารถ ตอบกระทู้ได้
  • ท่าน ไม่สามารถ แนบไฟล์ได้
  • ท่าน ไม่สามารถ แก้ไขข้อความโพสต์ได้
  • BB code สถานะ เปิด
  • Smilies สถานะ เปิด
  • [IMG] สถานะ เปิด
  • HTML สถานะ ปิด