+ ตอบกลับกระทู้
สรุปผลการค้นหา 1 ถึง 3 จากทั้งหมด 3
  1. #1
    Administrators รูปส่วนตัว Duckload.us
    สมัครเมื่อ
    Dec 2010
    โพสต์
    150,748
    Thanks
    7
    Thanked 158,014 Times in 68,989 Posts

    Lightbulb [จีน]-A Camellia Romance (2021) รักวุ่น ๆ กับคุณชายขายชา Ep.01-24 จบ [ซับไทย]-WEB-DL.H.264.1080p. [Hi-def rip from Master]-[Soundtrack บรรยายไทย]





    ละครเรื่องนี้เป็นการบอกเล่าเรื่องราวความรักแสนหวาน ระหว่างลูกสาวคนเดียวของเถ้าแก่ค้าผ้าไหม ที่อยากจะหลุดพ้นจากแม่เลี้ยงและทำตามความฝันในการเป ็นเจ้าของกิจการอย่างสวี่ฉุนฉุน (รับบทโดย หลี่โม่จือ ) และลูกชายของตระกูลโจวที่ได้รับการขนานนามว่าเป็น พ่อค้าชาอันดับหนึ่งในใต้หล้า อย่างโจวจวินเจวี๋ย (รับบทโดย กัวจื่อฝาน )



    Format : Matroska
    Format version : Version 4
    File size : 695 MiB
    Duration : 43 min 22 s
    Overall bit rate : 2 241 kb/s
    Encoded date : UTC 2021-11-23 08:59:57
    Writing application : mkvmerge v58.0.0 ('Supper's Ready') 64-bit
    Writing library : libebml v1.4.2 + libmatroska v1.6.4
    Attachments : upcfl.ttf / upcfi.ttf / upcfbi.ttf / upcfb.ttf / LayijiMahaniyomV1_61ot.otf

    Video
    ID : 1
    Format : AVC
    Format/Info : Advanced Video Codec
    Format profile : High@L4
    Format settings : CABAC / 3 Ref Frames
    Format settings, CABAC : Yes
    Format settings, Reference : 3 frames
    Codec ID : V_MPEG4/ISO/AVC
    Duration : 43 min 21 s
    Bit rate : 2 047 kb/s
    Width : 1 920 pixels
    Height : 1 080 pixels
    Display aspect ratio : 16:9
    Frame rate mode : Constant
    Frame rate : 25.000 FPS
    Color space : YUV
    Chroma subsampling : 4:2:0
    Bit depth : 8 bits
    Scan type : Progressive
    Bits/(Pixel*Frame) : 0.039
    Stream size : 635 MiB (91%)
    Writing library : qiyi.com vtc-test
    Default : Yes
    Forced : No
    Color range : Limited
    Color primaries : BT.709
    Transfer characteristics : BT.709
    Matrix coefficients : BT.709

    Audio
    ID : 2
    Format : AAC LC
    Format/Info : Advanced Audio Codec Low Complexity
    Codec ID : A_AAC-2
    Duration : 43 min 22 s
    Bit rate : 192 kb/s
    Channel(s) : 2 channels
    Channel layout : L R
    Sampling rate : 44.1 kHz
    Frame rate : 43.066 FPS (1024 SPF)
    Compression mode : Lossy
    Stream size : 58.8 MiB (8%)
    Language : Chinese
    Default : No
    Forced : No

    Text #1
    ID : 3
    Format : ASS
    Codec ID : S_TEXT/ASS
    Codec ID/Info : Advanced Sub Station Alpha
    Duration : 39 min 37 s
    Bit rate : 223 b/s
    Count of elements : 881
    Compression mode : Lossless
    Stream size : 64.8 KiB (0%)
    Title : Thai Spark (TV)
    Language : Thai
    Default : Yes
    Forced : No

    Text #2
    ID : 4
    Format : ASS
    Codec ID : S_TEXT/ASS
    Codec ID/Info : Advanced Sub Station Alpha
    Duration : 39 min 37 s
    Bit rate : 223 b/s
    Count of elements : 881
    Compression mode : Lossless
    Stream size : 64.8 KiB (0%)
    Title : Thai Spark (Pc)
    Language : Thai
    Default : No
    Forced : No

    Text #3
    ID : 5
    Format : UTF-8
    Codec ID : S_TEXT/UTF8
    Codec ID/Info : UTF-8 Plain Text
    Duration : 39 min 37 s
    Bit rate : 158 b/s
    Count of elements : 881
    Stream size : 46.0 KiB (0%)
    Title : Thai Spark (Srt)
    Language : Thai
    Default : No
    Forced : No



    A.Camellia.Romance.2021.S01E241080p.IQ.WEB-DL.AAC2.0.H.264.mkv
    http://www.filecondo.com/dl.php?f=I046611MT8LN

    A.Camellia.Romance.2021.S01E231080p.IQ.WEB-DL.AAC2.0.H.264.mkv
    http://www.filecondo.com/dl.php?f=L211831MT8Jp

    A.Camellia.Romance.2021.S01E221080p.IQ.WEB-DL.AAC2.0.H.264.mkv
    http://www.filecondo.com/dl.php?f=Hb8edd1MT8It

    A.Camellia.Romance.2021.S01E211080p.IQ.WEB-DL.AAC2.0.H.264.mkv
    ttp://www.filecondo.com/dl.php?f=I6dbc21MT8Hx

    A.Camellia.Romance.2021.S01E201080p.IQ.WEB-DL.AAC2.0.H.264.mkv
    http://www.filecondo.com/dl.php?f=O34a2c1MT8Gw

    A.Camellia.Romance.2021.S01E191080p.IQ.WEB-DL.AAC2.0.H.264.mkv
    http://www.filecondo.com/dl.php?f=vbef331MT8Fx

    A.Camellia.Romance.2021.S01E181080p.IQ.WEB-DL.AAC2.0.H.264.mkv
    http://www.filecondo.com/dl.php?f=mdf9381MT8EE

    A.Camellia.Romance.2021.S01E171080p.IQ.WEB-DL.AAC2.0.H.264.mkv
    http://www.filecondo.com/dl.php?f=q06a871MT8DH

    A.Camellia.Romance.2021.S01E161080p.IQ.WEB-DL.AAC2.0.H.264.mkv
    http://www.filecondo.com/dl.php?f=61775b1MT8CE

    A.Camellia.Romance.2021.S01E151080p.IQ.WEB-DL.AAC2.0.H.264.mkv
    http://www.filecondo.com/dl.php?f=Efaaa11MT8BE

    A.Camellia.Romance.2021.S01E141080p.IQ.WEB-DL.AAC2.0.H.264.mkv
    http://www.filecondo.com/dl.php?f=831ed51MT8AU

    A.Camellia.Romance.2021.S01E131080p.IQ.WEB-DL.AAC2.0.H.264.mkv
    http://www.filecondo.com/dl.php?f=S9f28e1MT8zN

    A.Camellia.Romance.2021.S01E121080p.IQ.WEB-DL.AAC2.0.H.264.mkv
    http://www.filecondo.com/dl.php?f=B034da1MT8yX

    A.Camellia.Romance.2021.S01E111080p.IQ.WEB-DL.AAC2.0.H.264.mkv
    http://www.filecondo.com/dl.php?f=I4c5a91MT8y9

    A.Camellia.Romance.2021.S01E101080p.IQ.WEB-DL.AAC2.0.H.264.mkv
    http://www.filecondo.com/dl.php?f=Z4ea641MT8xx

    A.Camellia.Romance.2021.S01E091080p.IQ.WEB-DL.AAC2.0.H.264.mkv
    http://www.filecondo.com/dl.php?f=3a1e661MT8wh

    A.Camellia.Romance.2021.S01E081080p.IQ.WEB-DL.AAC2.0.H.264.mkv
    http://www.filecondo.com/dl.php?f=M98cb91MT8vo

    A.Camellia.Romance.2021.S01E071080p.IQ.WEB-DL.AAC2.0.H.264.mkv
    http://www.filecondo.com/dl.php?f=V6e9c61MT8tb

    A.Camellia.Romance.2021.S01E061080p.IQ.WEB-DL.AAC2.0.H.264.mkv
    http://www.filecondo.com/dl.php?f=R0563f1MT8s9

    A.Camellia.Romance.2021.S01E051080p.IQ.WEB-DL.AAC2.0.H.264.mkv
    http://www.filecondo.com/dl.php?f=L478491MT8rb

    A.Camellia.Romance.2021.S01E041080p.IQ.WEB-DL.AAC2.0.H.264.mkv
    http://www.filecondo.com/dl.php?f=Uc291f1MT8ps

    A.Camellia.Romance.2021.S01E031080p.IQ.WEB-DL.AAC2.0.H.264.mkv
    http://www.filecondo.com/dl.php?f=gbee501MT8mc

    A.Camellia.Romance.2021.S01E021080p.IQ.WEB-DL.AAC2.0.H.264.mkv
    http://www.filecondo.com/dl.php?f=g2066c1MT8jQ

    A.Camellia.Romance.2021.S01E011080p.IQ.WEB-DL.AAC2.0.H.264.mkv
    http://www.filecondo.com/dl.php?f=18441a1MT8hO

  2. #2
    Senior Member
    สมัครเมื่อ
    Aug 2012
    โพสต์
    589
    Thanks
    0
    Thanked 0 Times in 0 Posts
    ขอบคุณมากครับ รบกวนตอนที่ 21 ด้วยครับ link ไม่มีโหลดครับ

  3. #3
    Junior Member
    สมัครเมื่อ
    Jul 2021
    โพสต์
    1
    Thanks
    1
    Thanked 0 Times in 0 Posts
    กด Ctrl+C แล้วไปวางก็โหลดได้แล้วครับผม EP21 อะครับ

    นี้ครับผม www.filecondo.com/dl.php?f=I6dbc21MT8Hx

+ ตอบกลับกระทู้

ข้อมูลกระทู้

Users Browsing this Thread

ในขณะนี้มี 1 ท่านดูกระทู้อยู่. (0 สมาชิกและ 1 ผู้เยี่ยมชม)

     

กฎการโพสต์ข้อความ

  • ท่าน ไม่สามารถ ตั้งกระทู้ใหม่ได้
  • ท่าน ไม่สามารถ ตอบกระทู้ได้
  • ท่าน ไม่สามารถ แนบไฟล์ได้
  • ท่าน ไม่สามารถ แก้ไขข้อความโพสต์ได้
  • BB code สถานะ เปิด
  • Smilies สถานะ เปิด
  • [IMG] สถานะ เปิด
  • HTML สถานะ ปิด