+ ตอบกลับกระทู้
สรุปผลการค้นหา 1 ถึง 1 จากทั้งหมด 1
  1. #1
    Administrators รูปส่วนตัว Duckload.us
    สมัครเมื่อ
    Dec 2010
    โพสต์
    138,365
    Thanks
    7
    Thanked 144,610 Times in 62,843 Posts

    Lightbulb [4K] [จีน]-Jun Jiu Ling (2021) หวนชะตารัก 4K 60FPS Ep.01-40 จบ [2160p][พากย์ไทย-ซับไทย]-WEB-DL.H.265.1080p. [Hi-def rip from Master]-[พากย์ไทย บรรยายไทย]



    หวนชะตารัก Jun Jiu Ling | ชะตาชีวิตพลิกผันเมื่อองค์หญิงฉู่จิ่วหลิงรู้ความจริ งว่า พระบิดาถูกผู้เป็นน้องชายลอบสังหาร จิ่วหลิงหวนกลับมาอีกครั้งในฐานะจวินเจินเจินด้วยควา มช่วยเหลือของหมอเทวดาที่แปลงโฉมให้ ชีวิตใหม่นี้ จิ่วหลิงต้องเปิดโปงเรื่องความลับดำมืดของราชวงศ์เพื ่อทวงคืนความยุติธรรม รวมถึงใช้วิชาแพทย์ช่วยเหลือผู้คน ขณะเดียวกันก็ได้เข้าไปพัวพันกับบุรุษถึงสี่คน ลู่อวิ๋นฉี อดีตสวามี ฟางเฉิงอวี่ ลูกพี่ลูกน้องของจวินเจินเจินตัวจริง นิ่งอวิ๋นเจา ผู้เคยมีสัญญาหมั้นหมายกับจวินเจินเจิน และจูจ้าน เพื่อนสมัยเด็กของฉู่จิ่วหลิง











    Video
    ID : 1
    Format : HEVC
    Format/Info : High Efficiency Video Coding
    Format profile : Main [email protected]@Main
    Codec ID : V_MPEGH/ISO/HEVC
    Duration : 47 min 22 s
    Bit rate : 5 515 kb/s
    Width : 3 840 pixels
    Height : 2 160 pixels
    Display aspect ratio : 16:9
    Frame rate mode : Constant
    Frame rate : 60.000 FPS
    Color space : YUV
    Chroma subsampling : 4:2:0
    Bit depth : 10 bits
    Bits/(Pixel*Frame) : 0.011
    Stream size : 1.82 GiB (93%)
    Default : Yes
    Forced : No
    Color range : Limited
    Color primaries : BT.709
    Transfer characteristics : BT.709
    Matrix coefficients : BT.709

    Audio #1
    ID : 2
    Format : AC-3
    Format/Info : Audio Coding 3
    Commercial name : Dolby Digital
    Codec ID : A_AC3
    Duration : 47 min 22 s
    Bit rate mode : Constant
    Bit rate : 192 kb/s
    Channel(s) : 2 channels
    Channel layout : L R
    Sampling rate : 48.0 kHz
    Frame rate : 31.250 FPS (1536 SPF)
    Compression mode : Lossy
    Stream size : 65.1 MiB (3%)
    Language : Thai
    Service kind : Complete Main
    Default : Yes
    Forced : No

    Audio #2
    ID : 3
    Format : AAC LC
    Format/Info : Advanced Audio Codec Low Complexity
    Codec ID : A_AAC-2
    Duration : 47 min 22 s
    Bit rate : 192 kb/s
    Channel(s) : 2 channels
    Channel layout : L R
    Sampling rate : 44.1 kHz
    Frame rate : 43.066 FPS (1024 SPF)
    Compression mode : Lossy
    Stream size : 64.2 MiB (3%)
    Language : Chinese
    Default : No
    Forced : No

    Text #1
    ID : 4
    Format : ASS
    Codec ID : S_TEXT/ASS
    Codec ID/Info : Advanced Sub Station Alpha
    Duration : 46 min 37 s
    Bit rate : 231 b/s
    Count of elements : 880
    Compression mode : Lossless
    Stream size : 79.1 KiB (0%)
    Title : Thai Spark (TV)_Freesia UPC
    Language : Thai
    Default : Yes
    Forced : No

    Text #2
    ID : 5
    Format : ASS
    Codec ID : S_TEXT/ASS
    Codec ID/Info : Advanced Sub Station Alpha
    Duration : 46 min 37 s
    Bit rate : 231 b/s
    Count of elements : 880
    Compression mode : Lossless
    Stream size : 79.1 KiB (0%)
    Title : Thai Spark (Pc)_Freesia UPC
    Language : Thai
    Default : No
    Forced : No

    Text #3
    ID : 6
    Format : ASS
    Codec ID : S_TEXT/ASS
    Codec ID/Info : Advanced Sub Station Alpha
    Duration : 46 min 37 s
    Bit rate : 231 b/s
    Count of elements : 880
    Compression mode : Lossless
    Stream size : 79.1 KiB (0%)
    Title : Thai Spark (TV)_Layiji MaHaNiYom
    Language : Thai
    Default : Yes
    Forced : No

    Text #4
    ID : 7
    Format : ASS
    Codec ID : S_TEXT/ASS
    Codec ID/Info : Advanced Sub Station Alpha
    Duration : 46 min 37 s
    Bit rate : 231 b/s
    Count of elements : 880
    Compression mode : Lossless
    Stream size : 79.1 KiB (0%)
    Title : Thai Spark (Pc)_Layiji MaHaNiYom
    Language : Thai
    Default : No
    Forced : No

    Text #5
    ID : 8
    Format : UTF-8
    Codec ID : S_TEXT/UTF8
    Codec ID/Info : UTF-8 Plain Text
    Duration : 46 min 37 s
    Bit rate : 176 b/s
    Count of elements : 880
    Stream size : 60.3 KiB (0%)
    Title : Thai Spark (Srt)
    Language : Thai
    Default : No
    Forced : No



    Jun.Jiu.Ling.2021.S01E40.2160p.60FPS.WEB-DL.H265.AAC-(Spark751).mkv
    http://www.filecondo.com/dl.php?f=Zb3e001MV0mB

    Jun.Jiu.Ling.2021.S01E39.2160p.60FPS.WEB-DL.H265.AAC-(Spark751).mkv
    http://www.filecondo.com/dl.php?f=f3fd091MV0lI

    Jun.Jiu.Ling.2021.S01E38.2160p.60FPS.WEB-DL.H265.AAC-(Spark751).mkv
    http://www.filecondo.com/dl.php?f=o8b7221MV0l2

    Jun.Jiu.Ling.2021.S01E37.2160p.60FPS.WEB-DL.H265.AAC-(Spark751).mkv
    http://www.filecondo.com/dl.php?f=Qcad4e1MV0jQ

    Jun.Jiu.Ling.2021.S01E36.2160p.60FPS.WEB-DL.H265.AAC-(Spark751).mkv
    http://www.filecondo.com/dl.php?f=x848451MV0iE

    Jun.Jiu.Ling.2021.S01E35.2160p.60FPS.WEB-DL.H265.AAC-(Spark751).mkv
    http://www.filecondo.com/dl.php?f=a72ad81MV0hG

    Jun.Jiu.Ling.2021.S01E34.2160p.60FPS.WEB-DL.H265.AAC-(Spark751).mkv
    http://www.filecondo.com/dl.php?f=M831b21MV0h7

    Jun.Jiu.Ling.2021.S01E33.2160p.60FPS.WEB-DL.H265.AAC-(Spark751).mkv
    http://www.filecondo.com/dl.php?f=M5427c1MV0g7

    Jun.Jiu.Ling.2021.S01E32.2160p.60FPS.WEB-DL.H265.AAC-(Spark751).mkv
    http://www.filecondo.com/dl.php?f=x8d66f1MV0eN

    Jun.Jiu.Ling.2021.S01E31.2160p.60FPS.WEB-DL.H265.AAC-(Spark751).mkv
    http://www.filecondo.com/dl.php?f=i842191MV0dS

    Jun.Jiu.Ling.2021.S01E30.2160p.60FPS.WEB-DL.H265.AAC-(Spark751).mkv
    http://www.filecondo.com/dl.php?f=e6b1a41MV0cS

    Jun.Jiu.Ling.2021.S01E29.2160p.60FPS.WEB-DL.H265.AAC-(Spark751).mkv
    http://www.filecondo.com/dl.php?f=o3fdf71MV0bX

    Jun.Jiu.Ling.2021.S01E28.2160p.60FPS.WEB-DL.H265.AAC-(Spark751).mkv
    http://www.filecondo.com/dl.php?f=b122ec1MV0aY

    Jun.Jiu.Ling.2021.S01E27.2160p.60FPS.WEB-DL.H265.AAC-(Spark751).mkv
    http://www.filecondo.com/dl.php?f=G0cc221MV09X

    Jun.Jiu.Ling.2021.S01E26.2160p.60FPS.WEB-DL.H265.AAC-(Spark751).mkv
    http://www.filecondo.com/dl.php?f=jbeb061MV08V

    Jun.Jiu.Ling.2021.S01E25.2160p.60FPS.WEB-DL.H265.AAC-(Spark751).mkv
    http://www.filecondo.com/dl.php?f=I094611MV083

    Jun.Jiu.Ling.2021.S01E24.2160p.60FPS.WEB-DL.H265.AAC-(Spark751).mkv
    http://www.filecondo.com/dl.php?f=2dc2471MV073

    Jun.Jiu.Ling.2021.S01E23.2160p.60FPS.WEB-DL.H265.AAC-(Spark751).mkv
    http://www.filecondo.com/dl.php?f=h4c8351MV065

    Jun.Jiu.Ling.2021.S01E22.2160p.60FPS.WEB-DL.H265.AAC-(Spark751).mkv
    http://www.filecondo.com/dl.php?f=Bae75d1MV057

    Jun.Jiu.Ling.2021.S01E21.2160p.60FPS.WEB-DL.H265.AAC-(Spark751).mkv
    http://www.filecondo.com/dl.php?f=Reb4371MV049

    Jun.Jiu.Ling.2021.S01E20.2160p.60FPS.WEB-DL.H265.AAC-(Spark751).mkv
    http://www.filecondo.com/dl.php?f=Xafd301MV03e

    Jun.Jiu.Ling.2021.S01E19.2160p.60FPS.WEB-DL.H265.AAC-(Spark751).mkv http://www.filecondo.com/dl.php?f=i5b9a91MV02e

    Jun.Jiu.Ling.2021.S01E18.2160p.60FPS.WEB-DL.H265.AAC-(Spark751).mkv
    http://www.filecondo.com/dl.php?f=Uf017b1MV01e

    Jun.Jiu.Ling.2021.S01E17.2160p.60FPS.WEB-DL.H265.AAC-(Spark751).mkv
    http://www.filecondo.com/dl.php?f=4121091MV00g

    Jun.Jiu.Ling.2021.S01E16.2160p.60FPS.WEB-DL.H265.AAC-(Spark751).mkv
    http://www.filecondo.com/dl.php?f=ucfcdc1MUZZj

    Jun.Jiu.Ling.2021.S01E15.2160p.60FPS.WEB-DL.H265.AAC-(Spark751).mkv
    http://www.filecondo.com/dl.php?f=La443a1MUZYk

    Jun.Jiu.Ling.2021.S01E14.2160p.60FPS.WEB-DL.H265.AAC-(Spark751).mkv
    http://www.filecondo.com/dl.php?f=28b5e61MUZXo

    Jun.Jiu.Ling.2021.S01E13.2160p.60FPS.WEB-DL.H265.AAC-(Spark751).mkv
    http://www.filecondo.com/dl.php?f=m36a101MUZWg

    Jun.Jiu.Ling.2021.S01E12.2160p.60FPS.WEB-DL.H265.AAC-(Spark751).mkv
    http://www.filecondo.com/dl.php?f=Y79fac1MUZSG

    Jun.Jiu.Ling.2021.S01E11.2160p.60FPS.WEB-DL.H265.AAC-(Spark751).mkv
    http://www.filecondo.com/dl.php?f=o3db0f1MUZRH

    Jun.Jiu.Ling.2021.S01E10.2160p.60FPS.WEB-DL.H265.AAC-(Spark751).mkv
    http://www.filecondo.com/dl.php?f=N5b0d11MUZQF

    Jun.Jiu.Ling.2021.S01E09.2160p.60FPS.WEB-DL.H265.AAC-(Spark751).mkv
    http://www.filecondo.com/dl.php?f=5a19411MUZPF

    Jun.Jiu.Ling.2021.S01E08.2160p.60FPS.WEB-DL.H265.AAC-(Spark751).mkv
    http://www.filecondo.com/dl.php?f=L2a34a1MUZOS

    Jun.Jiu.Ling.2021.S01E07.2160p.60FPS.WEB-DL.H265.AAC-(Spark751).mkv
    http://www.filecondo.com/dl.php?f=78d2481MUZMW

    Jun.Jiu.Ling.2021.S01E06.2160p.60FPS.WEB-DL.H265.AAC-(Spark751).mkv
    http://www.filecondo.com/dl.php?f=Pb51d71MUZLO

    Jun.Jiu.Ling.2021.S01E05.2160p.60FPS.WEB-DL.H265.AAC-(Spark751).mkv
    http://www.filecondo.com/dl.php?f=m8aeef1MUZLq

    Jun.Jiu.Ling.2021.S01E04.2160p.60FPS.WEB-DL.H265.AAC-(Spark751).mkv
    http://www.filecondo.com/dl.php?f=n2f07d1MUZKt

    Jun.Jiu.Ling.2021.S01E03.2160p.60FPS.WEB-DL.H265.AAC-(Spark751).mkv
    http://www.filecondo.com/dl.php?f=70b1961MUZJb

    Jun.Jiu.Ling.2021.S01E02.2160p.60FPS.WEB-DL.H265.AAC-(Spark751).mkv
    http://www.filecondo.com/dl.php?f=L9c74b1MUZHV

    Jun.Jiu.Ling.2021.S01E01.2160p.60FPS.WEB-DL.H265.AAC-(Spark751).mkv
    http://www.filecondo.com/dl.php?f=gd9d941MUZGW

  2. The Following User Says Thank You to Duckload.us For This Useful Post:

    alyssachia08 (12-16-2021)

+ ตอบกลับกระทู้

ข้อมูลกระทู้

Users Browsing this Thread

ในขณะนี้มี 1 ท่านดูกระทู้อยู่. (0 สมาชิกและ 1 ผู้เยี่ยมชม)

     

กฎการโพสต์ข้อความ

  • ท่าน ไม่สามารถ ตั้งกระทู้ใหม่ได้
  • ท่าน ไม่สามารถ ตอบกระทู้ได้
  • ท่าน ไม่สามารถ แนบไฟล์ได้
  • ท่าน ไม่สามารถ แก้ไขข้อความโพสต์ได้
  • BB code สถานะ เปิด
  • Smilies สถานะ เปิด
  • [IMG] สถานะ เปิด
  • HTML สถานะ ปิด