ซีรีส์ดัดแปลงจากมังงะขายดี ไอ้หนุ่มซูชิ เรื่องราวช่วงชีวิตที่สำคัญของชายหนุ่มผู้มุ่งมั่นจะ เป็นปรมาจารย์ทางด้านซูชิ

General
Complete name : E:SUSHI MASTER CHEF 2SUSHI MASTER CHEF 2 - 001-002.mp4
Format : MPEG-4
Format profile : Base Media / Version 2
Codec ID : mp42 (mp42/mp41)
File size : 3.25 GiB
Duration : 44 min 49 s
Overall bit rate : 10.4 Mb/s
Encoded date : UTC 2021-11-29 08:50:58
Tagged date : UTC 2021-11-29 09:00:54
TIM : 11:05:43:19
TSC : 24000
TSZ : 1001

Video
ID : 1
Format : AVC
Format/Info : Advanced Video Codec
Format profile : [email protected]
Format settings : CABAC / 4 Ref Frames
Format settings, CABAC : Yes
Format settings, Reference fra : 4 frames
Codec ID : avc1
Codec ID/Info : Advanced Video Coding
Duration : 44 min 49 s
Bit rate : 10.0 Mb/s
Width : 1 280 pixels
Height : 720 pixels
Display aspect ratio : 16:9
Frame rate mode : Constant
Frame rate : 23.976 (24000/1001) FPS
Color space : YUV
Chroma subsampling : 4:2:0
Bit depth : 8 bits
Scan type : Progressive
Bits/(Pixel*Frame) : 0.453
Stream size : 3.13 GiB (96%)
Language : English
Encoded date : UTC 2021-11-29 08:50:59
Tagged date : UTC 2021-11-29 08:50:59
Color range : Limited
Color primaries : BT.709
Transfer characteristics : BT.709
Matrix coefficients : BT.709
Codec configuration box : avcC

Audio
ID : 2
Format : MPEG Audio
Format version : Version 1
Format profile : Layer 2
Codec ID : mp4a-6B
Duration : 44 min 49 s
Source duration : 44 min 49 s
Bit rate mode : Constant
Bit rate : 384 kb/s
Channel(s) : 2 channels
Sampling rate : 48.0 kHz
Compression mode : Lossy
Stream size : 123 MiB (4%)
Source stream size : 123 MiB (4%)
Language : English
Encoded date : UTC 2021-11-29 08:50:58
Tagged date : UTC 2021-11-29 08:50:58

SUSHI_MASTER_CHEF_2_-_011-012.mp4
http://www.filecondo.com/dl.php?f=F7cde91N7J8L

SUSHI_MASTER_CHEF_2_-_009-010.mp4
http://www.filecondo.com/dl.php?f=S73a371N7J7N

SUSHI_MASTER_CHEF_2_-_007-008.mp4
http://www.filecondo.com/dl.php?f=gf09ad1N7J6B

SUSHI_MASTER_CHEF_2_-_005-006.mp4
http://www.filecondo.com/dl.php?f=t1ee9c1N7J5D

SUSHI_MASTER_CHEF_2_-_003-004.mp4
http://www.filecondo.com/dl.php?f=p278151N7J4M

SUSHI_MASTER_CHEF_2_-_001-002.mp4
http://www.filecondo.com/dl.php?f=T72d031N7J48