+ ตอบกลับกระทู้
สรุปผลการค้นหา 1 ถึง 5 จากทั้งหมด 5
  1. #1
    Administrators รูปส่วนตัว Duckload.us
    สมัครเมื่อ
    Dec 2010
    โพสต์
    138,184
    Thanks
    7
    Thanked 144,397 Times in 62,757 Posts

    Lightbulb [4K] [เกาหลี]-Hotel Del Luna (2019) คำสาปจันทรา กาลเวลาแห่งรัก 4K 60Fps Ep.01-16 จบ [2160p][พากย์ไทย-ซับไทย]-WEB-DL.H.265.อื่น ๆ. [Hi-def rip from Master]-[พากย์ไทย บรรยายไทย]



    ในอดีต จางมันวอล (ไอยู) ได้ทำความผิดครั้งใหญ่ ส่งผลให้เธอต้องมาทำหน้าที่ดูแล 'โฮเทล เดล ลูนา' โรงแรมที่เปิดบริการให้แก่เหล่าภูติผีมานานนับพันปี ตอนนี้ได้เวลาที่เธอจะต้องหาผู้จัดการคนใหม่ โชคชะตาทำให้ กูชานซอง (ยอจินกู) ได้เข้ามารับตำแหน่งผู้จัดการ และกลายเป็นมนุษย์คนเดียวใน 'โฮเทล เดล ลูนา'

















    Video
    ID : 1
    Format : HEVC
    Format/Info : High Efficiency Video Coding
    Format profile : Main [email protected]@High
    Codec ID : V_MPEGH/ISO/HEVC
    Duration : 1 h 13 min
    Bit rate : 4 993 kb/s
    Width : 3 840 pixels
    Height : 2 160 pixels
    Display aspect ratio : 16:9
    Frame rate mode : Constant
    Frame rate : 59.940 (60000/1001) FPS
    Standard : Component
    Color space : YUV
    Chroma subsampling : 4:2:0
    Bit depth : 10 bits
    Bits/(Pixel*Frame) : 0.010
    Stream size : 2.57 GiB (81%)
    Default : Yes
    Forced : No
    Color range : Limited
    Color primaries : BT.709
    Transfer characteristics : BT.709
    Matrix coefficients : BT.709

    Audio #1
    ID : 2
    Format : AAC LC
    Format/Info : Advanced Audio Codec Low Complexity
    Codec ID : A_AAC-2
    Duration : 1 h 13 min
    Bit rate : 384 kb/s
    Channel(s) : 2 channels
    Channel layout : L R
    Sampling rate : 48.0 kHz
    Frame rate : 46.875 FPS (1024 SPF)
    Compression mode : Lossy
    Delay relative to video : -33 ms
    Stream size : 202 MiB (6%)
    Title : Korean
    Language : Korean
    Default : No
    Forced : No

    Audio #2
    ID : 3
    Format : AC-3
    Format/Info : Audio Coding 3
    Commercial name : Dolby Digital
    Codec ID : A_AC3
    Duration : 1 h 13 min
    Bit rate mode : Constant
    Bit rate : 192 kb/s
    Channel(s) : 2 channels
    Channel layout : L R
    Sampling rate : 48.0 kHz
    Frame rate : 31.250 FPS (1536 SPF)
    Compression mode : Lossy
    Delay relative to video : -33 ms
    Stream size : 101 MiB (3%)
    Title : Monomax
    Language : Thai
    Service kind : Complete Main
    Default : Yes
    Forced : No

    Audio #3
    ID : 4
    Format : AC-3
    Format/Info : Audio Coding 3
    Commercial name : Dolby Digital
    Codec ID : A_AC3
    Duration : 1 h 13 min
    Bit rate mode : Constant
    Bit rate : 192 kb/s
    Channel(s) : 2 channels
    Channel layout : L R
    Sampling rate : 48.0 kHz
    Frame rate : 31.250 FPS (1536 SPF)
    Compression mode : Lossy
    Delay relative to video : -33 ms
    Stream size : 101 MiB (3%)
    Title : POP
    Language : Thai
    Service kind : Complete Main
    Default : No
    Forced : No

    Audio #4
    ID : 5
    Format : AC-3
    Format/Info : Audio Coding 3
    Commercial name : Dolby Digital
    Codec ID : A_AC3
    Duration : 1 h 13 min
    Bit rate mode : Constant
    Bit rate : 192 kb/s
    Channel(s) : 2 channels
    Channel layout : L R
    Sampling rate : 48.0 kHz
    Frame rate : 31.250 FPS (1536 SPF)
    Compression mode : Lossy
    Delay relative to video : -33 ms
    Stream size : 101 MiB (3%)
    Title : trueid
    Language : Thai
    Service kind : Complete Main
    Default : No
    Forced : No

    Audio #5
    ID : 6
    Format : AC-3
    Format/Info : Audio Coding 3
    Commercial name : Dolby Digital
    Codec ID : A_AC3
    Duration : 1 h 13 min
    Bit rate mode : Constant
    Bit rate : 192 kb/s
    Channel(s) : 2 channels
    Channel layout : L R
    Sampling rate : 48.0 kHz
    Frame rate : 31.250 FPS (1536 SPF)
    Compression mode : Lossy
    Delay relative to video : -33 ms
    Stream size : 101 MiB (3%)
    Title : Viu
    Language : Thai
    Service kind : Complete Main
    Default : No
    Forced : No

    Text #1
    ID : 7
    Format : ASS
    Codec ID : S_TEXT/ASS
    Codec ID/Info : Advanced Sub Station Alpha
    Duration : 1 h 12 min
    Bit rate : 126 b/s
    Count of elements : 748
    Compression mode : Lossless
    Stream size : 67.4 KiB (0%)
    Title : Thai Spark (TV)
    Language : Thai
    Default : No
    Forced : No

    Text #2
    ID : 8
    Format : ASS
    Codec ID : S_TEXT/ASS
    Codec ID/Info : Advanced Sub Station Alpha
    Duration : 1 h 12 min
    Bit rate : 126 b/s
    Count of elements : 748
    Compression mode : Lossless
    Stream size : 67.4 KiB (0%)
    Title : Thai Spark (Pc)
    Language : Thai
    Default : Yes
    Forced : No

    Text #3
    ID : 9
    Format : UTF-8
    Codec ID : S_TEXT/UTF8
    Codec ID/Info : UTF-8 Plain Text
    Duration : 1 h 12 min
    Bit rate : 96 b/s
    Count of elements : 748
    Stream size : 51.4 KiB (0%)
    Title : Thai Spark (Srt)
    Language : Thai
    Default : No
    Forced : No




    Hotel.Del.Luna.S01E16.2160p.WEB-DL.x265.10bit.AAC-(Spark751).mkv
    http://www.filecondo.com/dl.php?f=D6e6261NbGPv

    Hotel.Del.Luna.S01E15.2160p.WEB-DL.x265.10bit.AAC-(Spark751).mkv
    http://www.filecondo.com/dl.php?f=P862ee1NbGKB

    Hotel.Del.Luna.S01E14.2160p.WEB-DL.x265.10bit.AAC-(Spark751).mkv
    http://www.filecondo.com/dl.php?f=W9512d1NbGF9

    Hotel.Del.Luna.S01E13.2160p.WEB-DL.x265.10bit.AAC-(Spark751).mkv
    http://www.filecondo.com/dl.php?f=k5be6c1NbGyI

    Hotel.Del.Luna.S01E12.2160p.WEB-DL.x265.10bit.AAC-(Spark751).mkv
    http://www.filecondo.com/dl.php?f=a1955e1NbGuP

    Hotel.Del.Luna.S01E11.2160p.WEB-DL.x265.10bit.AAC-(Spark751).mkv
    http://www.filecondo.com/dl.php?f=7d24281NbGrB

    Hotel.Del.Luna.S01E10.2160p.WEB-DL.x265.10bit.AAC-(Spark751).mkv
    http://www.filecondo.com/dl.php?f=06610f1NbGnk

    Hotel.Del.Luna.S01E09.2160p.WEB-DL.x265.10bit.AAC-(Spark751).mkv
    http://www.filecondo.com/dl.php?f=M879f71NbGd2

    Hotel.Del.Luna.S01E08.2160p.WEB-DL.x265.10bit.AAC-(Spark751).mkv
    http://www.filecondo.com/dl.php?f=6420101NbGay

    Hotel.Del.Luna.S01E07.2160p.WEB-DL.x265.10bit.AAC-(Spark751).mkv
    http://www.filecondo.com/dl.php?f=4bc64b1NbG7W

    Hotel.Del.Luna.S01E06.2160p.WEB-DL.x265.10bit.AAC-(Spark751).mkv
    http://www.filecondo.com/dl.php?f=Ie84351NbG44

    Hotel.Del.Luna.S01E05.2160p.WEB-DL.x265.10bit.AAC-(Spark751).mkv
    http://www.filecondo.com/dl.php?f=Xd040f1NbFYb

    Hotel.Del.Luna.S01E04.2160p.WEB-DL.x265.10bit.AAC-(Spark751).mkv
    http://www.filecondo.com/dl.php?f=W318321NbFRN

    Hotel.Del.Luna.S01E03.2160p.WEB-DL.x265.10bit.AAC-(Spark751).mkv
    http://www.filecondo.com/dl.php?f=1cca601NbFPl

    Hotel.Del.Luna.S01E02.2160p.WEB-DL.x265.10bit.AAC-(Spark751).mkv
    http://www.filecondo.com/dl.php?f=w733361NbFMs

    Hotel.Del.Luna.S01E01.2160p.WEB-DL.x265.10bit.AAC-(Spark751).mkv
    http://www.filecondo.com/dl.php?f=3018ff1NbFHu

  2. The Following 2 Users Say Thank You to Duckload.us For This Useful Post:

    F2UMaH6398 (01-25-2022), thelover10 (07-04-2022)

  3. #2
    Senior Member
    สมัครเมื่อ
    Jul 2012
    โพสต์
    8,059
    Thanks
    0
    Thanked 0 Times in 0 Posts
    ขอบคุณมากจ้า

  4. #3
    Junior Member
    สมัครเมื่อ
    Dec 2015
    โพสต์
    2
    Thanks
    0
    Thanked 0 Times in 0 Posts
    โหลดไม่ได้ครับช่วยแก้ให้หน่อยได้ไหมครับ

  5. #4
    Junior Member
    สมัครเมื่อ
    Dec 2015
    โพสต์
    2
    Thanks
    0
    Thanked 0 Times in 0 Posts
    ตอนที่ 3 4 5 14 15 โหลดไม่ได้ช่วยแก้ให้หนอ่ยครับ

  6. #5
    Administrators รูปส่วนตัว Duckload.us
    สมัครเมื่อ
    Dec 2010
    โพสต์
    138,184
    Thanks
    7
    Thanked 144,397 Times in 62,757 Posts
    อ้างอิง โพสต์ต้นฉบับโดยคุณ negi ดูโพสต์
    ตอนที่ 3 4 5 14 15 โหลดไม่ได้ช่วยแก้ให้หนอ่ยครับ
    เรียนแจ้ง แก้ไขแล้วครับ

+ ตอบกลับกระทู้

ข้อมูลกระทู้

Users Browsing this Thread

ในขณะนี้มี 1 ท่านดูกระทู้อยู่. (0 สมาชิกและ 1 ผู้เยี่ยมชม)

     

กฎการโพสต์ข้อความ

  • ท่าน ไม่สามารถ ตั้งกระทู้ใหม่ได้
  • ท่าน ไม่สามารถ ตอบกระทู้ได้
  • ท่าน ไม่สามารถ แนบไฟล์ได้
  • ท่าน ไม่สามารถ แก้ไขข้อความโพสต์ได้
  • BB code สถานะ เปิด
  • Smilies สถานะ เปิด
  • [IMG] สถานะ เปิด
  • HTML สถานะ ปิด