+ ตอบกลับกระทู้
สรุปผลการค้นหา 1 ถึง 10 จากทั้งหมด 10
  1. #1
    Administrators รูปส่วนตัว Duckload.us
    สมัครเมื่อ
    Dec 2010
    โพสต์
    139,860
    Thanks
    7
    Thanked 146,370 Times in 63,686 Posts

    Thumbs up [ฝรั่ง]-Spider-Man.No.Way.Home.2021.1080p.BluRay.x264.AAC5.1-[YTS.MX] [Thai DD+ 5.1,Eng AAC 5.1] [Sub Thai/Eng] ไฟล์เล็กคุณภาพเต็มแก้ว-Blu-ray.AC-3.1080p. [Rip]-[พากย์ไทย (Master)]



    หลังจากถูกเปิดเผยตัวตนที่แท้จริง ความรับผิดชอบอันยิ่งใหญ่ของการเป็นซูเปอร์ฮีโร่ ขัดแย้งกับการดำเนินชีวิตแบบธรรมดาของเขาและทำให้คนท ี่เขารักตกอยู่ในอันตราย เขาจึงได้ไปขอความช่วยเหลือจากด็อกเตอร์สเตรนจ์เพื่อ ใช้เวทมนต์ทำให้ทุกคนลืมตัวตนจริงของ สไปเดอร์-แมน แต่แล้วได้เกิดเหตุการณ์ระหว่างร่ายมนต์ทำให้ส่งผลกร ะทบกับมัลติยูนิเวิรส์ปลดปล่อยอสรุกายร้ายที่เคยต่อก รกับ สไปเดอร์-แมนในพหุภพต่าง ๆ ออกมา ปีเตอร์ พารค์เกอร์ (ทอม ฮอลแลนด์) จะต้องลุกขึ้นสู้กับอุปสรรคอันใหญ่หลวงครั้งนี้ที่จะ เปลี่ยนแปลงไม่ใช่แค่ชีวิตเขา แต่รวมถึงอนาคตของพหุภพต่าง ๆ อีกด้วย

    Format : Matroska
    Format version : Version 4
    File size : 3.19 GiB
    Duration : 2 h 28 min
    Overall bit rate : 3 078 kb/s
    Encoded date : UTC 2022-03-15 18:31:59
    Writing application : mkvmerge v31.0.0 ('Dolores In A Shoestand') 64-bit
    Writing library : libebml v1.3.6 + libmatroska v1.4.9
    Attachments : Spider-Man.No.Way.Home.jpg

    Video
    ID : 1
    Format : AVC
    Format/Info : Advanced Video Codec
    Format profile : [email protected]
    Format settings : CABAC / 4 Ref Frames
    Format settings, CABAC : Yes
    Format settings, Reference frames : 4 frames
    Codec ID : V_MPEG4/ISO/AVC
    Duration : 2 h 28 min
    Bit rate : 2 250 kb/s
    Width : 1 920 pixels
    Height : 800 pixels
    Display aspect ratio : 2.40:1
    Frame rate mode : Constant
    Frame rate : 23.976 (24000/1001) FPS
    Color space : YUV
    Chroma subsampling : 4:2:0
    Bit depth : 8 bits
    Scan type : Progressive
    Bits/(Pixel*Frame) : 0.061
    Stream size : 2.33 GiB (73%)
    Writing library : x264 core 161
    Encoding settings : cabac=1 / ref=4 / deblock=1:-1:-1 / analyse=0x3:0x133 / me=umh / subme=9 / psy=1 / psy_rd=1.00:0.15 / mixed_ref=1 / me_range=24 / chroma_me=1 / trellis=2 / 8x8dct=1 / cqm=0 / deadzone=21,11 / fast_pskip=0 / chroma_qp_offset=-3 / threads=24 / lookahead_threads=2 / sliced_threads=0 / nr=0 / decimate=1 / interlaced=0 / bluray_compat=0 / constrained_intra=0 / bframes=3 / b_pyramid=2 / b_adapt=2 / b_bias=0 / direct=3 / weightb=1 / open_gop=0 / weightp=2 / keyint=250 / keyint_min=23 / scenecut=40 / intra_refresh=0 / rc_lookahead=60 / rc=2pass / mbtree=1 / bitrate=2250 / ratetol=1.0 / qcomp=0.60 / qpmin=0 / qpmax=69 / qpstep=4 / cplxblur=20.0 / qblur=0.5 / vbv_maxrate=31250 / vbv_bufsize=31250 / nal_hrd=none / filler=0 / ip_ratio=1.40 / aq=1:1.00
    Language : English
    Default : Yes
    Forced : No
    Color range : Limited
    Color primaries : BT.709
    Transfer characteristics : BT.709
    Matrix coefficients : BT.709

    Audio #1
    ID : 2
    Format : E-AC-3
    Format/Info : Enhanced AC-3
    Commercial name : Dolby Digital Plus
    Codec ID : A_EAC3
    Duration : 2 h 28 min
    Bit rate mode : Constant
    Bit rate : 384 kb/s
    Channel(s) : 6 channels
    Channel layout : L R C LFE Ls Rs
    Sampling rate : 48.0 kHz
    Frame rate : 31.250 FPS (1536 SPF)
    Compression mode : Lossy
    Delay relative to video : -43 ms
    Stream size : 407 MiB (12%)
    Language : Thai
    Service kind : Complete Main
    Default : Yes
    Forced : No

    Audio #2
    ID : 3
    Format : AAC LC
    Format/Info : Advanced Audio Codec Low Complexity
    Codec ID : A_AAC-2
    Duration : 2 h 28 min
    Bit rate : 384 kb/s
    Channel(s) : 6 channels
    Channel layout : C L R Ls Rs LFE
    Sampling rate : 48.0 kHz
    Frame rate : 46.875 FPS (1024 SPF)
    Compression mode : Lossy
    Delay relative to video : -43 ms
    Stream size : 407 MiB (12%)
    Language : English
    Default : No
    Forced : No

    Text #1
    ID : 4
    Format : PGS
    Muxing mode : zlib
    Codec ID : S_HDMV/PGS
    Codec ID/Info : Picture based subtitle format used on BDs/HD-DVDs
    Duration : 2 h 28 min
    Bit rate : 32.5 kb/s
    Count of elements : 3896
    Stream size : 34.4 MiB (1%)
    Language : Thai
    Default : Yes
    Forced : No

    Text #2
    ID : 5
    Format : UTF-8
    Codec ID : S_TEXT/UTF8
    Codec ID/Info : UTF-8 Plain Text
    Duration : 2 h 28 min
    Bit rate : 124 b/s
    Count of elements : 1948
    Stream size : 134 KiB (0%)
    Language : Thai
    Default : No
    Forced : No

    Text #3
    ID : 6
    Format : UTF-8
    Codec ID : S_TEXT/UTF8
    Codec ID/Info : UTF-8 Plain Text
    Duration : 2 h 28 min
    Bit rate : 132 b/s
    Count of elements : 2057
    Stream size : 144 KiB (0%)
    Language : Thai
    Default : No
    Forced : No

    Text #4
    ID : 7
    Format : PGS
    Muxing mode : zlib
    Codec ID : S_HDMV/PGS
    Codec ID/Info : Picture based subtitle format used on BDs/HD-DVDs
    Duration : 2 h 27 min
    Bit rate : 35.3 kb/s
    Count of elements : 3833
    Stream size : 37.4 MiB (1%)
    Language : English
    Default : No
    Forced : No

    Text #5
    ID : 8
    Format : PGS
    Muxing mode : zlib
    Codec ID : S_HDMV/PGS
    Codec ID/Info : Picture based subtitle format used on BDs/HD-DVDs
    Duration : 2 h 27 min
    Bit rate : 41.5 kb/s
    Count of elements : 4404
    Stream size : 43.9 MiB (1%)
    Language : English
    Default : No
    Forced : No

    Menu
    00:00:00.000 : en:Chapter 1
    00:05:03.178 : en:Chapter 2
    00:11:58.593 : en:Chapter 3
    00:18:38.909 : en:Chapter 4
    00:27:00.452 : en:Chapter 5
    00:37:21.239 : en:Chapter 6
    00:48:02.004 : en:Chapter 7
    00:59:51.797 : en:Chapter 8
    01:04:06.634 : en:Chapter 9
    01:09:51.312 : en:Chapter 10
    01:18:29.455 : en:Chapter 11
    01:28:59.626 : en:Chapter 12
    01:33:48.289 : en:Chapter 13
    01:46:38.392 : en:Chapter 14
    02:05:39.323 : en:Chapter 15
    02:13:03.601 : en:Chapter 16





    Download:filecondo
    Spider-Man.No Way Home (2021).1080p.WEB.H264-TH.mkv - 11.0 GB
    Spider-Man.No.Way.Home.2021.1080p.10bit.DS4K.BluRay.DD+7. 1.HEVC.mkv - 5.5 GB
    Spider-Man.No.Way.Home.2021.1080p.BluRay.x264.AAC5.1-[YTS.MX].mkv - 3.2 GB
    Spider-Man.No.Way.Home.2021.1080p.BluRay.x264.TrueHD.7.1. Atmos.mkv - 17.3 GB
    Spider-Man.No.Way.Home.2021.1080p.BluRay.x264.DD.5.1_GOLD CUP.mkv - 3.7 GB
    Spider-Man.No.Way.Home.2021.1080p.BluRay.x264.TrueHD.7.1. Atmos_GOLD CUP.mkv - 7.3 GB

    Download:cornfile
    Spider-Man.No Way Home (2021).1080p.WEB.H264-TH.mkv - 11.0 GB
    Spider-Man.No.Way.Home.2021.1080p.10bit.DS4K.BluRay.DD+7. 1.HEVC.mkv - 5.5 GB
    Spider-Man.No.Way.Home.2021.1080p.BluRay.x264.AAC5.1-[YTS.MX].mkv - 3.2 GB
    Spider-Man.No.Way.Home.2021.1080p.BluRay.x264.TrueHD.7.1. Atmos.mkv - 17.3 GB
    Spider-Man.No.Way.Home.2021.1080p.BluRay.x264.DD.5.1_GOLD CUP.mkv - 3.7 GB
    Spider-Man.No.Way.Home.2021.1080p.BluRay.x264.TrueHD.7.1. Atmos_GOLD CUP.mkv - 7.3 GB

  2. The Following 7 Users Say Thank You to Duckload.us For This Useful Post:

    bigbang06 (03-16-2022), kappa (03-18-2022), noi54 (03-17-2022), OppU (03-17-2022), rakterkonne (03-17-2022), Tellmon (03-17-2022), Wesker_TOT (03-16-2022)

  3. #2
    Senior Member
    สมัครเมื่อ
    Dec 2013
    โพสต์
    4,172
    Thanks
    6,072
    Thanked 0 Times in 0 Posts
    ขอบคุณครับ...

  4. #3
    Member
    สมัครเมื่อ
    Sep 2019
    โพสต์
    91
    Thanks
    0
    Thanked 0 Times in 0 Posts
    ขอบคุณครับ

  5. #4
    Junior Member รูปส่วนตัว petpina2010
    สมัครเมื่อ
    Jun 2020
    โพสต์
    28
    Thanks
    0
    Thanked 0 Times in 0 Posts
    ขอบคุณครับ

  6. #5
    Senior Member
    สมัครเมื่อ
    Jul 2013
    โพสต์
    107
    Thanks
    0
    Thanked 0 Times in 0 Posts
    ทำไมโหลดไม่ได้

    ขึ้นแบบนี้ครับ ไฟล์ยังไม่พร้อมสำหรับการดาวโหลด ระบบกำลังประมวลผลไฟล์


    รอใช่ไหมครับผม

  7. #6
    Senior Member
    สมัครเมื่อ
    Dec 2013
    โพสต์
    698
    Thanks
    648
    Thanked 0 Times in 0 Posts
    ขอบคุณครับบ

  8. #7
    Senior Member
    สมัครเมื่อ
    May 2011
    โพสต์
    154
    Thanks
    44
    Thanked 0 Times in 0 Posts
    ที่เคยเจอคือรอ 2-3 วันมั้งครับ เหมือนยังอัพไม่เสร็จ

  9. #8
    Member
    สมัครเมื่อ
    Jun 2020
    โพสต์
    57
    Thanks
    1
    Thanked 0 Times in 0 Posts
    ไฟล์ยังประมวลผลไม่เสร็จ คือกำลังอัพใช่มั้ยคะ งั้นจะรอน้า ขอบคุณมากค่ะ

  10. #9
    Senior Member
    สมัครเมื่อ
    Jul 2013
    โพสต์
    107
    Thanks
    0
    Thanked 0 Times in 0 Posts
    filecondo

    ไฟล์ยังไม่พร้อมสำหรับการดาวโหลด ระบบกำลังประมวลผลไฟล์




    ต้องรอใช่ไหมครับผม

  11. #10
    Member
    สมัครเมื่อ
    Nov 2021
    โพสต์
    45
    Thanks
    0
    Thanked 0 Times in 0 Posts
    ขอบคุณครับ

+ ตอบกลับกระทู้

ข้อมูลกระทู้

Users Browsing this Thread

ในขณะนี้มี 1 ท่านดูกระทู้อยู่. (0 สมาชิกและ 1 ผู้เยี่ยมชม)

     

กฎการโพสต์ข้อความ

  • ท่าน ไม่สามารถ ตั้งกระทู้ใหม่ได้
  • ท่าน ไม่สามารถ ตอบกระทู้ได้
  • ท่าน ไม่สามารถ แนบไฟล์ได้
  • ท่าน ไม่สามารถ แก้ไขข้อความโพสต์ได้
  • BB code สถานะ เปิด
  • Smilies สถานะ เปิด
  • [IMG] สถานะ เปิด
  • HTML สถานะ ปิด