+ ตอบกลับกระทู้
สรุปผลการค้นหา 1 ถึง 3 จากทั้งหมด 3
  1. #1
    Administrators รูปส่วนตัว Duckload.us
    สมัครเมื่อ
    Dec 2010
    โพสต์
    136,550
    Thanks
    7
    Thanked 141,349 Times in 61,962 Posts

    Thumbs up [ฝรั่ง]-MOONFALL (2022) วันวิบัติ จันทร์ถล่มโลก -Encode.Dolby Atmos.2160p. [Modified]-[Soundtrack บรรยายไทย - อนันต์ โพธิสูง]



    เรื่องย่อ : MOONFALL (2022) วันวิบัติ จันทร์ถล่มโลก
    เรื่องราวของ กองกำลังลึกลับกระแทกดวงจันทร์จากวงโคจรรอบโลกและส่ง ให้ดวงจันทร์พุ่งชนกับชีวิตอย่างที่เราทราบ เมื่อไม่กี่สัปดาห์ก่อนเกิดผลกระทบและโลกใกล้จะถูกทำ ลายล้าง โจ ฟาวเลอร์ ผู้บริหารและอดีตนักบินอวกาศของ NASA เชื่อว่าเธอมีกุญแจที่จะช่วยชีวิตเราทุกคนได้ แต่มีนักบินอวกาศเพียงคนเดียวจากอดีตของเธอ ไบรอัน ฮาร์เปอร์ และนักทฤษฎีสมคบคิด เค.ซี. แม่บ้านเชื่อเธอ ฮีโร่ที่ไม่น่าจะเป็นไปได้เหล่านี้จะทำภารกิจสุดท้าย ที่เป็นไปไม่ได้ในอวกาศ ทิ้งทุกคนที่พวกเขารักไว้เพียงเพื่อจะพบว่าพวกเขาอาจ เตรียมสำหรับภารกิจที่ผิด

    Format : Matroska
    Format version : Version 4
    File size : 22.6 GiB
    Duration : 2 h 10 min
    Overall bit rate : 24.8 Mb/s
    Movie name : MOONFALL (2022) ????????? ????????????? .2160p.WEB-DL.DDP5.1.Atmos.HDR.H.265 @bURIN
    Encoded date : UTC 2022-04-01 14:58:07
    Writing application : mkvmerge v56.0.0 ('Strasbourg / St. Denis') 32-bit
    Writing library : libebml v1.4.2 + libmatroska v1.6.4

    Video
    ID : 4
    Format : HEVC
    Format/Info : High Efficiency Video Coding
    Format profile : Main [email protected]@High
    HDR format : SMPTE ST 2086, HDR10 compatible
    Codec ID : V_MPEGH/ISO/HEVC
    Duration : 2 h 10 min
    Bit rate : 24.0 Mb/s
    Width : 3 832 pixels
    Height : 1 600 pixels
    Display aspect ratio : 2.40:1
    Frame rate mode : Constant
    Frame rate : 23.976 (24000/1001) FPS
    Color space : YUV
    Chroma subsampling : 4:2:0 (Type 2)
    Bit depth : 10 bits
    Bits/(Pixel*Frame) : 0.163
    Stream size : 21.9 GiB (97%)
    Default : Yes
    Forced : No
    Color range : Limited
    Color primaries : BT.2020
    Transfer characteristics : PQ
    Matrix coefficients : BT.2020 non-constant
    Mastering display color primaries : BT.2020
    Mastering display luminance : min: 0.0050 cd/m2, max: 1000 cd/m2
    Maximum Content Light Level : 958 cd/m2
    Maximum Frame-Average Light Level : 602 cd/m2

    Audio
    ID : 5
    Format : E-AC-3 JOC
    Format/Info : Enhanced AC-3 with Joint Object Coding
    Commercial name : Dolby Digital Plus with Dolby Atmos
    Codec ID : A_EAC3
    Duration : 2 h 10 min
    Bit rate mode : Constant
    Bit rate : 768 kb/s
    Channel(s) : 6 channels
    Channel layout : L R C LFE Ls Rs
    Sampling rate : 48.0 kHz
    Frame rate : 31.250 FPS (1536 SPF)
    Compression mode : Lossy
    Stream size : 716 MiB (3%)
    Title : ?????? E-AC-3
    Language : English
    Service kind : Complete Main
    Default : Yes
    Forced : No
    Complexity index : 16
    Number of dynamic objects : 15
    Bed channel count : 1 channel
    Bed channel configuration : LFE

    Text #1
    ID : 1
    Format : VobSub
    Muxing mode : zlib
    Codec ID : S_VOBSUB
    Codec ID/Info : Picture based subtitle format used on DVDs
    Duration : 2 h 0 min
    Bit rate : 12.1 kb/s
    Count of elements : 1805
    Stream size : 10.5 MiB (0%)
    Title : ??? VobSub
    Language : Thai
    Default : No
    Forced : No

    Text #2
    ID : 2
    Format : UTF-8
    Codec ID : S_TEXT/UTF8
    Codec ID/Info : UTF-8 Plain Text
    Duration : 2 h 0 min
    Bit rate : 144 b/s
    Count of elements : 1805
    Stream size : 128 KiB (0%)
    Title : ??? SRT
    Language : Thai
    Default : No
    Forced : No

    Text #3
    ID : 3
    Format : PGS
    Muxing mode : zlib
    Codec ID : S_HDMV/PGS
    Codec ID/Info : Picture based subtitle format used on BDs/HD-DVDs
    Duration : 2 h 0 min
    Bit rate : 50.2 kb/s
    Count of elements : 3610
    Stream size : 43.5 MiB (0%)
    Title : ??? PGS
    Language : Thai
    Default : Yes
    Forced : Yes

    Text #4
    ID : 6
    Format : UTF-8
    Codec ID : S_TEXT/UTF8
    Codec ID/Info : UTF-8 Plain Text
    Duration : 2 h 0 min
    Bit rate : 76 b/s
    Count of elements : 2268
    Stream size : 68.0 KiB (0%)
    Title : ?????? SRT
    Language : English
    Default : No
    Forced : No



    Download:filecondo
    http://www.filecondo.com/dl.php?f=z9db601NAw0E
    Download:cornfile
    https://www.cornfile.com/h2y9qq7mp82b

  2. The Following User Says Thank You to Duckload.us For This Useful Post:

    thesuperpop (04-12-2022)

  3. #2
    Junior Member
    สมัครเมื่อ
    May 2012
    โพสต์
    8
    Thanks
    0
    Thanked 0 Times in 0 Posts
    โหลดไม่ได้ครับ

  4. #3
    Junior Member
    สมัครเมื่อ
    Oct 2016
    โพสต์
    29
    Thanks
    4
    Thanked 0 Times in 0 Posts
    filecondo โหลดไม่ได้ครับ

+ ตอบกลับกระทู้

ข้อมูลกระทู้

Users Browsing this Thread

ในขณะนี้มี 1 ท่านดูกระทู้อยู่. (0 สมาชิกและ 1 ผู้เยี่ยมชม)

     

กฎการโพสต์ข้อความ

  • ท่าน ไม่สามารถ ตั้งกระทู้ใหม่ได้
  • ท่าน ไม่สามารถ ตอบกระทู้ได้
  • ท่าน ไม่สามารถ แนบไฟล์ได้
  • ท่าน ไม่สามารถ แก้ไขข้อความโพสต์ได้
  • BB code สถานะ เปิด
  • Smilies สถานะ เปิด
  • [IMG] สถานะ เปิด
  • HTML สถานะ ปิด