+ ตอบกลับกระทู้
สรุปผลการค้นหา 1 ถึง 2 จากทั้งหมด 2
  1. #1
    Administrators รูปส่วนตัว Duckload.us
    สมัครเมื่อ
    Dec 2010
    โพสต์
    135,947
    Thanks
    7
    Thanked 140,740 Times in 61,769 Posts

    Lightbulb [เกาหลี] Her Private Life (2019) โลกอีกใบของยัยแฟนเกิร์ล [Ep 1-16End-1080p] : Ep.1-16/End]-HDTV.H.264.1080p. [From HD-TV] - [Sound:Thai / Korea] - [Sub:Thai]




    Her Private Life (2019) : โลกอีกใบของยัยแฟนเกิร์ล



    IMDb: 7.7
    https://www.imdb.com/title/tt9899340/

    Quote:
    ซีรี่ย์เกาหลี: Her Private Life
    ชื่อภาษาไทย: โลกอีกใบของยัยแฟนเกิร์ล
    ประเภท: Drama, Romance, Comedy
    จำนวนตอน: 16
    นำแสดงโดย: Park Min Young, Kim Jae Wook, Ahn Bo Hyun, One, Kim Bo Ra, Park Jin Joo
    ผู้กำกับ: Hong Jong Chan
    เขียนบทโดย: Kim Sung Yeon (novel), Kim Hye Young
    ออกอากาศทางสถานีโทรทัศน์: tvN, Viu
    เริ่มออกอากาศ: 10 เมษายน 2019 – 30 พพฤษภาคม 2019
    เวลาออกอากาศ: วันพุธ & วันพฤหัสบดี 19:30 น. เวลาไทย / 21:30 น. ตามเวลาเกาหลี

    นักแสดง:
    Park Min Young as Sung Duk Mi
    Kim Jae Wook as Ryan Gold
    Ahn Bo Hyun as Nam Eun Ki
    People around Duk Mi
    Maeng Sang Hoon as Sung Geun Ho (Duk Mi's father)
    Kim Mi Kyung as Ko Young Sook (Duk Mi's mother)
    Park Jin Joo as Lee Sun Joo (Duk Mi's best friend)
    People around Eun Ki
    Park Myung Shin as Nam Se Yun (Eun Ki's mother)
    People at Chaeum Museum of Art
    Kim Sun Young as Uhm So Hye
    Seo Ye Hwa as Yoo Kyung Ah
    Jung Won Chang as Kim Yoo Sub
    Others
    Kim Bo Ra as Cindy
    Jung Jae Won as Cha Shi Ahn
    Hong Seo Young as Choi Da In
    Im Ji Kyu as Kang Seung Min (Sun Joo’s husband)
    Yoo Yong Min as Joo Hyuk

    Synopsis: โลกของติ่ง ไม่มีคำว่ามากเกินไป การคลั่งไคล้หลงใหลอะไรสักอย่างทำให้ชีวิตน่าตื่นเต้ น มีความหมาย และได้รับการเติมเต็ม ละครโรแมนติกคอมเมดี้เกี่ยวกับติ่งเรื่องนี้ จะทำให้คุณรู้ว่าการเป็นติ่ง หรือที่เรียกว่า ด็อกฮู นั้นคืออะไร และมีความหมายอย่างไร ซองด็อกมีคือคนที่จริงจังกับชีวิตการทำงาน และจริงจังยิ่งกว่ากับชีวิตอีกด้านที่เป็นติ่ง ไรอัน โกลด์ ชายที่ประสบความสำเร็จเข้ามาเป็นผู้อำนวยการที่แกลเล อรีที่ด็อกมีทำงานอยู่ และเริ่มหลงรักเธออย่างช้า ๆ พอได้ทำความรู้จักกันมากขึ้น ไรอันก็ได้รู้ว่าด็อกมีเป็นติ่งของชาชีอัน นักร้องไอดอลที่เธอทำแฟนไซต์ลับ ๆ และจากความคลั่งไคล้ของเธอนี่เอง เขาจึงเริ่มสนใจเข้ามาเป็นติ่ง และค่อย ๆ ดำดิ่งเข้าสู้ชีวิตการเป็นติ่ง และเมื่อการเป็นติ่งนำพาให้พวกเขาตกหลุมรักกันจะเป็น อย่างไร ต้องติดตามชมกันในซีรีย์เกาหลี Her Private Life โลกอีกใบของยัยแฟนเกิร์ล

    Credit: franky




    Quote:
    General
    Complete name : Her.Private.Life.E07.1080p.WEBRip.x264.mkv
    Format : Matroska
    Format version : Version 4
    File size : 1.30 GiB
    Duration : 1 h 2 min
    Overall bit rate mode : Variable
    Overall bit rate : 2 995 kb/s
    Encoded date : UTC 2019-09-21 11:54:12
    Writing application : mkvmerge v19.0.0 ('Brave Captain') 64-bit
    Writing library : libebml v1.3.5 + libmatroska v1.4.8

    Video
    ID : 1
    Format : AVC
    Format/Info : Advanced Video Codec
    Format profile : [email protected]
    Format settings : CABAC / 4 Ref Frames
    Format settings, CABAC : Yes
    Format settings, Reference frames : 4 frames
    Codec ID : V_MPEG4/ISO/AVC
    Duration : 1 h 2 min
    Bit rate mode : Variable
    Bit rate : 2 704 kb/s
    Maximum bit rate : 4 500 kb/s
    Width : 1 920 pixels
    Height : 1 080 pixels
    Display aspect ratio : 16:9
    Frame rate mode : Constant
    Frame rate : 29.970 (30000/1001) FPS
    Original frame rate : 29.970 (29970/1000) FPS
    Color space : YUV
    Chroma subsampling : 4:2:0
    Bit depth : 8 bits
    Scan type : Progressive
    Bits/(Pixel*Frame) : 0.044
    Stream size : 1.17 GiB (90%)
    Writing library : VOLO1.4.1
    Default : Yes
    Forced : No

    Audio #1
    ID : 2
    Format : AC-3
    Format/Info : Audio Coding 3
    Commercial name : Dolby Digital
    Codec ID : A_AC3
    Duration : 1 h 2 min
    Bit rate mode : Constant
    Bit rate : 192 kb/s
    Channel(s) : 2 channels
    Channel layout : L R
    Sampling rate : 48.0 kHz
    Frame rate : 31.250 FPS (1536 SPF)
    Compression mode : Lossy
    Delay relative to video : -21 ms
    Stream size : 85.4 MiB (6%)
    Language : Thai
    Service kind : Complete Main
    Default : Yes
    Forced : No

    Audio #2
    ID : 3
    Format : AAC LC
    Format/Info : Advanced Audio Codec Low Complexity
    Codec ID : A_AAC-2
    Duration : 1 h 2 min
    Bit rate : 96.0 kb/s
    Channel(s) : 2 channels
    Channel layout : L R
    Sampling rate : 48.0 kHz
    Frame rate : 46.875 FPS (1024 SPF)
    Compression mode : Lossy
    Delay relative to video : -21 ms
    Stream size : 42.7 MiB (3%)
    Language : Korean
    Default : No
    Forced : No

    Text
    ID : 4
    Format : UTF-8
    Codec ID : S_TEXT/UTF8
    Codec ID/Info : UTF-8 Plain Text
    Duration : 1 h 1 min
    Bit rate : 132 b/s
    Count of elements : 826
    Stream size : 59.6 KiB (0%)
    Language : Thai
    Default : Yes
    Forced : No





    SS
    https://i.imgur.com/9tdr8qv.jpg








    YouTube:
    https://youtu.be/H8QQaWcSQdw


    Her.Private.Life.E16.END.1080p.WEBRip.x264.mkv
    http://www.filecondo.com/dl.php?f=ba0ae81NOPQ0

    Her.Private.Life.E15.1080p.WEBRip.x264.mkv
    http://www.filecondo.com/dl.php?f=C005451NOPOU

    Her.Private.Life.E14.1080p.WEBRip.x264.mkv
    http://www.filecondo.com/dl.php?f=dda17d1NOPNS

    Her.Private.Life.E13.1080p.WEBRip.x264.mkv
    http://www.filecondo.com/dl.php?f=3a704d1NOPNk

    Her.Private.Life.E12.1080p.WEBRip.x264.mkv
    http://www.filecondo.com/dl.php?f=10c5c81NOPL2

    Her.Private.Life.E11.1080p.WEBRip.x264.mkv
    http://www.filecondo.com/dl.php?f=8178b61NOPK2

    Her.Private.Life.E10.1080p.WEBRip.x264.mkv
    http://www.filecondo.com/dl.php?f=44148c1NOPJ3

    Her.Private.Life.E09.1080p.WEBRip.x264.mkv
    http://www.filecondo.com/dl.php?f=o980301NOPI3

    Her.Private.Life.E08.1080p.WEBRip.x264.mkv
    http://www.filecondo.com/dl.php?f=r1586c1NOPH6

    Her.Private.Life.E07.1080p.WEBRip.x264.mkv
    http://www.filecondo.com/dl.php?f=kd4b471NOPG9

    Her.Private.Life.E06.1080p.WEBRip.x264.mkv
    http://www.filecondo.com/dl.php?f=gf3b141NOPFa

    Her.Private.Life.E05.1080p.WEBRip.x264.mkv
    http://www.filecondo.com/dl.php?f=N9274d1NOPEb

    Her.Private.Life.E04.1080p.WEBRip.x264.mkv
    http://www.filecondo.com/dl.php?f=04c3bc1NOPDf

    Her.Private.Life.E03.1080p.WEBRip.x264.mkv
    http://www.filecondo.com/dl.php?f=Q5752d1NOPCf

    Her.Private.Life.E02.1080p.WEBRip.x264.mkv
    http://www.filecondo.com/dl.php?f=Afaef71NOPBj

    Her.Private.Life.E01.1080p.WEBRip.x264.mkv
    http://www.filecondo.com/dl.php?f=A362fa1NOPAS

  2. #2
    Senior Member
    สมัครเมื่อ
    Jul 2013
    โพสต์
    3,239
    Thanks
    0
    Thanked 0 Times in 0 Posts
    ขอบคุรครับ

+ ตอบกลับกระทู้

ข้อมูลกระทู้

Users Browsing this Thread

ในขณะนี้มี 1 ท่านดูกระทู้อยู่. (0 สมาชิกและ 1 ผู้เยี่ยมชม)

     

กฎการโพสต์ข้อความ

  • ท่าน ไม่สามารถ ตั้งกระทู้ใหม่ได้
  • ท่าน ไม่สามารถ ตอบกระทู้ได้
  • ท่าน ไม่สามารถ แนบไฟล์ได้
  • ท่าน ไม่สามารถ แก้ไขข้อความโพสต์ได้
  • BB code สถานะ เปิด
  • Smilies สถานะ เปิด
  • [IMG] สถานะ เปิด
  • HTML สถานะ ปิด