เมื่อมีฆาตกรต่อเนื่องลอยนวลในคาร์นิวัล โรว์ และรัฐบาลไม่สนใจความตายของพลเมืองชั้นรอง ไรครอฟต์ ฟิโลสเตรต ตำรวจสืบสวนผู้เคยผ่านสมรภูมิรบ เป็นเพียงคนเดียวที่เต็มใจจะหยุดการฆาตกรรมและรักษาค วามสงบสุขที่แสนเปราะบาง แต่เมื่อวินเยตต์ สโตนมอสส์ เฟผู้อพยพปรากฏตัวขึ้นที่เมืองเบิร์ก เธอได้ทำให้ไฟโลครุ่นคิดถึงอดีตที่เขายายามจะลืม

แสดงโดย ออร์แลนโด บลูม, คารา เดเลอวีน, ไซมอน แม็คเบอร์นีย
ประเภท ระทึกใจ, แฟนตาซี, ดราม่า











Format : Matroska
Format version : Version 4 / Version 2
File size : 1.43 GiB
Duration : 1 h 0 min
Overall bit rate : 3 374 kb/s
Movie name : Carnival Row (TV Series 2019) [email protected]
Encoded date : UTC 2022-05-10 13:25:54
Writing application : mkvmerge v63.0.0 ('Everything') 64-bit
Writing library : libebml v1.4.2 + libmatroska v1.6.4
Cover : Yes
Attachments : cover.png

Video
ID : 1
Format : AVC
Format/Info : Advanced Video Codec
Format profile : [email protected]
Format settings, CABAC : Yes
Format settings, RefFrames : 4 frames
Codec ID : V_MPEG4/ISO/AVC
Duration : 1 h 0 min
Bit rate : 2 674 kb/s
Width : 1 920 pixels
Height : 1 080 pixels
Display aspect ratio : 16:9
Frame rate mode : Constant
Frame rate : 23.976 (24000/1001) FPS
Color space : YUV
Chroma subsampling : 4:2:0
Bit depth : 8 bits
Scan type : Progressive
Bits/(Pixel*Frame) : 0.054
Stream size : 1.13 GiB (79%)
Default : Yes
Forced : No
Color range : Limited
Color primaries : BT.709
Transfer characteristics : BT.709
Matrix coefficients : BT.709

Audio
ID : 2
Format : E-AC-3
Format/Info : Enhanced Audio Coding 3
Format settings, Endianness : Big
Codec ID : A_EAC3
Duration : 1 h 0 min
Bit rate mode : Constant
Bit rate : 640 kb/s
Channel(s) : 6 channels
Channel positions : Front: L C R, Side: L R, LFE
Sampling rate : 48.0 kHz
Frame rate : 187.500 FPS (256 SPF)
Compression mode : Lossy
Stream size : 277 MiB (19%)
Title : English-DDP 5.1
Language : English
Service kind : Complete Main
Default : Yes
Forced : No

Text #1
ID : 3
Format : PGS
Muxing mode : zlib
Codec ID : S_HDMV/PGS
Codec ID/Info : Picture based subtitle format used on BDs/HD-DVDs
Duration : 58 min 29 s
Bit rate : 41.1 kb/s
Count of elements : 1500
Stream size : 17.2 MiB (1%)
Title : Thai-PGS From AMZN
Language : Thai
Default : Yes
Forced : Yes

Text #2
ID : 4
Format : VobSub
Muxing mode : zlib
Codec ID : S_VOBSUB
Codec ID/Info : Picture based subtitle format used on DVDs
Duration : 58 min 29 s
Bit rate : 9 909 b/s
Count of elements : 750
Stream size : 4.15 MiB (0%)
Title : Thai-VOBSUB From AMZN
Language : Thai
Default : Yes
Forced : No

Text #3
ID : 5
Format : UTF-8
Codec ID : S_TEXT/UTF8
Codec ID/Info : UTF-8 Plain Text
Duration : 58 min 20 s
Bit rate : 63 b/s
Count of elements : 1016
Stream size : 27.0 KiB (0%)
Title : English-SRT From AMZN
Language : English
Default : Yes
Forced : No


Carnival.Row.2019.S01E08.1080p.AMZN.APP-DL.DDP5.1.h264.mkv
http://www.filecondo.com/dl.php?f=7db2ba1NPqaK

Carnival.Row.2019.S01E07.1080p.AMZN.APP-DL.DDP5.1.h264.mkv
http://www.filecondo.com/dl.php?f=Dd09291NPq8R

Carnival.Row.2019.S01E06.1080p.AMZN.APP-DL.DDP5.1.h264.mkv
http://www.filecondo.com/dl.php?f=d7ecf21NPq87

Carnival.Row.2019.S01E05.1080p.AMZN.APP-DL.DDP5.1.h264.mkv
http://www.filecondo.com/dl.php?f=ic530d1NPq7f

Carnival.Row.2019.S01E04.1080p.AMZN.APP-DL.DDP5.1.h264.mkv
http://www.filecondo.com/dl.php?f=lc83f51NPq42

Carnival.Row.2019.S01E03.1080p.AMZN.APP-DL.DDP5.1.h264.mkv
http://www.filecondo.com/dl.php?f=zd3b111NPq2j

Carnival.Row.2019.S01E02.1080p.AMZN.APP-DL.DDP5.1.h264.mkv
http://www.filecondo.com/dl.php?f=A73d391NPq1D

Carnival.Row.2019.S01E01.1080p.AMZN.APP-DL.DDP5.1.h264.mkv
http://www.filecondo.com/dl.php?f=Zf12b41NPq07


Carnival.Row.2019.S01E01.1080p.AMZN.APP-DL.DDP5.1.h264.mkv - 1.4 GB
Carnival.Row.2019.S01E02.1080p.AMZN.APP-DL.DDP5.1.h264.mkv - 1.1 GB
Carnival.Row.2019.S01E03.1080p.AMZN.APP-DL.DDP5.1.h264.mkv - 1.6 GB
Carnival.Row.2019.S01E04.1080p.AMZN.APP-DL.DDP5.1.h264.mkv - 1.2 GB
Carnival.Row.2019.S01E05.1080p.AMZN.APP-DL.DDP5.1.h264.mkv - 1.1 GB
Carnival.Row.2019.S01E06.1080p.AMZN.APP-DL.DDP5.1.h264.mkv - 993.0 MB
Carnival.Row.2019.S01E07.1080p.AMZN.APP-DL.DDP5.1.h264.mkv - 814.1 MB
Carnival.Row.2019.S01E08.1080p.AMZN.APP-DL.DDP5.1.h264.mkv - 1.3 GB