+ ตอบกลับกระทู้
สรุปผลการค้นหา 1 ถึง 2 จากทั้งหมด 2
  1. #1
    Administrators รูปส่วนตัว Duckload.us
    สมัครเมื่อ
    Dec 2010
    โพสต์
    135,947
    Thanks
    7
    Thanked 140,740 Times in 61,769 Posts

    Angry [ฝรั่ง]-ลูซี่ สวยพิฆาต : Lucy.2014.2160p.BluRay.REMUX.HEVC.DTS-HD.MA.TrueHD.Atmos.7.1.EN.TH.-Remux.Dolby TrueHD.2160p. [Rip]-[พากย์ไทย บรรยายไทย]



    Lucy (2014) : ลูซี่ สวยพิฆาต

    ผลงานของสุดยอดผู้กำกับชาวฝรั่งเศส ลุค เบซอง ที่ได้นักแสดงสาวสุดเซ็กซี่ สการ์เล็ต โจแฮนสัน มารับบทเป็น ลูซี่ หญิงสาวที่เข้าไปพัวพันกับวงจรมืดโดยบังเอิญ และถูกยัดสารเคมีใส่ในร่างกาย เหตุการณ์พลิกผัน เมื่อสารเคมีนั้นมีปฏิกริยาต่อร่างกาย ทำให้เธอมีพลังพิเศษ และเปลี่ยนให้เธอเป็นนักฆ่าผู้ไร้ความปรานเกินกว่าจะ หาเหตุผลมาอธิบาย ภาพยนตร์แอ็คชั่นทริลเลอร์จัดเต็มเรื่องนี ยังได้นักแสดงรางวัล ออสการ์อย่าง มอร์แกน ฟรีแมน มาร่วมแสดงด้วย

    Format : Matroska
    Format version : Version 4
    File size : 57.3 GiB
    Duration : 1 h 29 min
    Overall bit rate mode : Variable
    Overall bit rate : 91.7 Mb/s
    Movie name : Lucy.2014.2160p.BluRay.REMUX.HEVC.DTS-HD.MA.TrueHD.Atmos.7.1.EN.TH.kiatplk
    Encoded date : UTC 2022-05-03 06:08:26
    Writing application : mkvmerge v64.0.0 ('Willows') 64-bit
    Writing library : libebml v1.4.2 + libmatroska v1.6.4

    Video
    ID : 1
    Format : HEVC
    Format/Info : High Efficiency Video Coding
    Format profile : Main [email protected]@High
    HDR format : SMPTE ST 2086, HDR10 compatible
    Codec ID : V_MPEGH/ISO/HEVC
    Duration : 1 h 29 min
    Bit rate : 80.0 Mb/s
    Width : 3 840 pixels
    Height : 2 160 pixels
    Display aspect ratio : 16:9
    Frame rate mode : Constant
    Frame rate : 23.976 (24000/1001) FPS
    Color space : YUV
    Chroma subsampling : 4:2:0 (Type 2)
    Bit depth : 10 bits
    Bits/(Pixel*Frame) : 0.402
    Stream size : 50.0 GiB (87%)
    Title : Lucy.2014.2160p.BluRay.REMUX.HEVC.DTS-HD.MA.TrueHD.Atmos.7.1-FGT
    Writing library : ATEME Titan KFE 3.7.3 (4.7.3.1003)
    Default : Yes
    Forced : No
    Color range : Limited
    Color primaries : BT.2020
    Transfer characteristics : PQ
    Matrix coefficients : BT.2020 non-constant
    Mastering display color primar : Display P3
    Mastering display luminance : min: 0.0050 cd/m2, max: 1000 cd/m2
    Maximum Content Light Level : 1000 cd/m2
    Maximum Frame-Average Light Le : 400 cd/m2

    Audio #1
    ID : 2
    Format : MLP FBA 16-ch
    Format/Info : Meridian Lossless Packing FBA with 16-channel presentation
    Commercial name : Dolby TrueHD with Dolby Atmos
    Codec ID : A_TRUEHD
    Duration : 1 h 29 min
    Bit rate mode : Variable
    Bit rate : 5 206 kb/s
    Maximum bit rate : 8 685 kb/s
    Channel(s) : 8 channels
    Channel layout : L R C LFE Ls Rs Lb Rb
    Sampling rate : 48.0 kHz
    Frame rate : 1 200.000 FPS (40 SPF)
    Compression mode : Lossless
    Delay relative to video : 32 ms
    Stream size : 3.25 GiB (6%)
    Title : Lucy.2014.2160p.BluRay.REMUX.HEVC.DTS-HD.MA.TrueHD.Atmos.7.1-FGT
    Language : English
    Default : Yes
    Forced : No
    Number of dynamic objects : 11
    Bed channel count : 1 channel
    Bed channel configuration : LFE

    Audio #2
    ID : 3
    Format : DTS XLL
    Format/Info : Digital Theater Systems
    Commercial name : DTS-HD Master Audio
    Codec ID : A_DTS
    Duration : 1 h 29 min
    Bit rate mode : Variable
    Bit rate : 4 248 kb/s
    Channel(s) : 8 channels
    Channel layout : C L R LFE Lb Rb Lss Rss
    Sampling rate : 48.0 kHz
    Frame rate : 93.750 FPS (512 SPF)
    Bit depth : 24 bits
    Compression mode : Lossless
    Stream size : 2.65 GiB (5%)
    Title : Lucy.2014.2160p.BluRay.REMUX.HEVC.DTS-HD.MA.TrueHD.Atmos.7.1-FGT
    Language : English
    Default : No
    Forced : No

    Audio #3
    ID : 4
    Format : AC-3
    Format/Info : Audio Coding 3
    Commercial name : Dolby Digital
    Format settings : Dolby Surround EX
    Codec ID : A_AC3
    Duration : 1 h 29 min
    Bit rate mode : Constant
    Bit rate : 640 kb/s
    Channel(s) : 6 channels
    Channel layout : L R C LFE Ls Rs
    Sampling rate : 48.0 kHz
    Frame rate : 31.250 FPS (1536 SPF)
    Compression mode : Lossy
    Delay relative to video : 31 ms
    Stream size : 410 MiB (1%)
    Title : Lucy.2014.2160p.BluRay.REMUX.HEVC.DTS-HD.MA.TrueHD.Atmos.7.1-FGT
    Language : English
    Service kind : Complete Main
    Default : No
    Forced : No

    Audio #4
    ID : 5
    Format : DTS
    Format/Info : Digital Theater Systems
    Codec ID : A_DTS
    Duration : 1 h 29 min
    Bit rate mode : Constant
    Bit rate : 768 kb/s
    Channel(s) : 6 channels
    Channel layout : C L R Ls Rs LFE
    Sampling rate : 48.0 kHz
    Frame rate : 93.750 FPS (512 SPF)
    Bit depth : 24 bits
    Compression mode : Lossy
    Stream size : 491 MiB (1%)
    Title : Thai DTS BluRay Master
    Language : Thai
    Default : Yes
    Forced : Yes

    Audio #5
    ID : 6
    Format : DTS
    Format/Info : Digital Theater Systems
    Codec ID : A_DTS
    Duration : 1 h 29 min
    Bit rate mode : Constant
    Bit rate : 754 kb/s
    Channel(s) : 6 channels
    Channel layout : C L R Ls Rs LFE
    Sampling rate : 48.0 kHz
    Frame rate : 93.750 FPS (512 SPF)
    Bit depth : 24 bits
    Compression mode : Lossy
    Stream size : 482 MiB (1%)
    Title : English DTS
    Language : English
    Default : No
    Forced : No

    Text #1
    ID : 7
    Format : PGS
    Muxing mode : zlib
    Codec ID : S_HDMV/PGS
    Codec ID/Info : Picture based subtitle format used on BDs/HD-DVDs
    Duration : 1 h 20 min
    Bit rate : 30.1 kb/s
    Count of elements : 1910
    Stream size : 17.4 MiB (0%)
    Title : English-PGS
    Language : English
    Default : Yes
    Forced : No

    Text #2
    ID : 8
    Format : VobSub
    Muxing mode : zlib
    Codec ID : S_VOBSUB
    Codec ID/Info : Picture based subtitle format used on DVDs
    Duration : 1 h 27 min
    Bit rate : 4 612 b/s
    Count of elements : 801
    Stream size : 2.90 MiB (0%)
    Title : Thai 1080p BluRay Master
    Language : Thai
    Default : No
    Forced : No

    Text #3
    ID : 9
    Format : VobSub
    Muxing mode : zlib
    Codec ID : S_VOBSUB
    Codec ID/Info : Picture based subtitle format used on DVDs
    Duration : 1 h 27 min
    Bit rate : 4 612 b/s
    Count of elements : 801
    Stream size : 2.90 MiB (0%)
    Title : Thai 1080p Out
    Language : Thai
    Default : No
    Forced : No

    Text #4
    ID : 10
    Format : PGS
    Muxing mode : zlib
    Codec ID : S_HDMV/PGS
    Codec ID/Info : Picture based subtitle format used on BDs/HD-DVDs
    Duration : 1 h 27 min
    Bit rate : 18.8 kb/s
    Count of elements : 1602
    Stream size : 11.8 MiB (0%)
    Title : Thai PGS
    Language : Thai
    Default : No
    Forced : No

    Text #5
    ID : 11
    Format : PGS
    Muxing mode : zlib
    Codec ID : S_HDMV/PGS
    Codec ID/Info : Picture based subtitle format used on BDs/HD-DVDs
    Duration : 1 h 27 min
    Bit rate : 18.8 kb/s
    Count of elements : 1602
    Stream size : 11.8 MiB (0%)
    Title : Thai PGS Out
    Language : Thai
    Default : No
    Forced : No

    Text #6
    ID : 12
    Format : VobSub
    Muxing mode : zlib
    Codec ID : S_VOBSUB
    Codec ID/Info : Picture based subtitle format used on DVDs
    Duration : 50 min 6 s
    Bit rate : 547 b/s
    Count of elements : 59
    Stream size : 201 KiB (0%)
    Title : English Force
    Language : Thai
    Default : No
    Forced : No



    https://www.cornfile.com/lllrh573et5d

  2. The Following User Says Thank You to Duckload.us For This Useful Post:

    Wesker_TOT (05-16-2022)

  3. #2
    Senior Member
    สมัครเมื่อ
    Dec 2013
    โพสต์
    3,657
    Thanks
    5,563
    Thanked 0 Times in 0 Posts
    ขอบคุณครับ...

+ ตอบกลับกระทู้

ข้อมูลกระทู้

Users Browsing this Thread

ในขณะนี้มี 1 ท่านดูกระทู้อยู่. (0 สมาชิกและ 1 ผู้เยี่ยมชม)

     

กฎการโพสต์ข้อความ

  • ท่าน ไม่สามารถ ตั้งกระทู้ใหม่ได้
  • ท่าน ไม่สามารถ ตอบกระทู้ได้
  • ท่าน ไม่สามารถ แนบไฟล์ได้
  • ท่าน ไม่สามารถ แก้ไขข้อความโพสต์ได้
  • BB code สถานะ เปิด
  • Smilies สถานะ เปิด
  • [IMG] สถานะ เปิด
  • HTML สถานะ ปิด