+ ตอบกลับกระทู้
สรุปผลการค้นหา 1 ถึง 5 จากทั้งหมด 5
  1. #1
    Administrators รูปส่วนตัว Duckload.us
    สมัครเมื่อ
    Dec 2010
    โพสต์
    136,623
    Thanks
    7
    Thanked 141,416 Times in 61,988 Posts

    Thumbs up [ฝรั่ง]-Morbius (2022) [1080p WEB-DL]-[เสียง: ไทย DD+ 5.1 + อังกฤษ Atmos]-[Sub: ไทย + อังกฤษ SRT]-WEB-DL.H.264.1080p. [Master]-[พากย์ไทย MASTER บรรยายไทย]



    -เรื่องย่อ-
    เรื่องราวของคุณหมอมากฝีมือ ไมเคิล มอร์เบียส (จาเรด เลโต) เขากำลังป่วยเป็นโรคเกี่ยวกับเลือดที่ยังไม่มีทางรัก ษาเขาจึงพยายามคิดค้นหาวิธีการรักษาโรคของตัวเอง รวมถึงเป็นโอกาสที่จะได้รักษาคนอื่นที่เป็นโรคเดียวก ับเขาด้วย ดร.มอร์เบียสได้ใช้ตัวเองทดลองกับสารที่สกัดจากค้างค าวผลที่เกิดขึ้นคือเขามีพลังเหนือมนุษย์มีความสามารถ เหมือนค้างคาวขณะเดียวกันก็เต็มไปด้วยความกระหายเลือ ดที่ยากจะควบคุม

    Format : Matroska
    Format version : Version 4
    File size : 5.81 GiB
    Duration : 1 h 44 min
    Overall bit rate : 7 989 kb/s
    Encoded date : UTC 2022-05-19 08:52:55
    Writing application : mkvmerge v67.0.0 ('Under Stars') 64-bit
    Writing library : libebml v1.4.2 + libmatroska v1.6.4

    Video
    ID : 1
    Format : AVC
    Format/Info : Advanced Video Codec
    Format profile : [email protected]
    Format settings : CABAC / 5 Ref Frames
    Format settings, CABAC : Yes
    Format settings, Reference frames : 5 frames
    Codec ID : V_MPEG4/ISO/AVC
    Duration : 1 h 44 min
    Bit rate : 6 835 kb/s
    Width : 1 920 pixels
    Height : 800 pixels
    Display aspect ratio : 2.40:1
    Frame rate mode : Constant
    Frame rate : 23.976 (24000/1001) FPS
    Color space : YUV
    Chroma subsampling : 4:2:0
    Bit depth : 8 bits
    Scan type : Progressive
    Bits/(Pixel*Frame) : 0.186
    Stream size : 4.97 GiB (86%)
    Language : English
    Default : Yes
    Forced : No
    Color range : Limited
    Color primaries : BT.709
    Transfer characteristics : BT.709
    Matrix coefficients : BT.709

    Audio #1
    ID : 2
    Format : E-AC-3 JOC
    Format/Info : Enhanced AC-3 with Joint Object Coding
    Commercial name : Dolby Digital Plus with Dolby Atmos
    Codec ID : A_EAC3
    Duration : 1 h 44 min
    Bit rate mode : Constant
    Bit rate : 768 kb/s
    Channel(s) : 6 channels
    Channel layout : L R C LFE Ls Rs
    Sampling rate : 48.0 kHz
    Frame rate : 31.250 FPS (1536 SPF)
    Compression mode : Lossy
    Stream size : 572 MiB (10%)
    Title : English (Atmos)
    Language : English
    Service kind : Complete Main
    Default : No
    Forced : No
    Complexity index : 16
    Number of dynamic objects : 15
    Bed channel count : 1 channel
    Bed channel configuration : LFE

    Audio #2
    ID : 3
    Format : E-AC-3
    Format/Info : Enhanced AC-3
    Commercial name : Dolby Digital Plus
    Codec ID : A_EAC3
    Duration : 1 h 44 min
    Bit rate mode : Constant
    Bit rate : 384 kb/s
    Channel(s) : 6 channels
    Channel layout : L R C LFE Ls Rs
    Sampling rate : 48.0 kHz
    Frame rate : 31.250 FPS (1536 SPF)
    Compression mode : Lossy
    Stream size : 286 MiB (5%)
    Title : Thai (DD+ 5.1 - Google Play)
    Language : Thai
    Service kind : Complete Main
    Default : Yes
    Forced : No

    Text #1
    ID : 4
    Format : UTF-8
    Codec ID : S_TEXT/UTF8
    Codec ID/Info : UTF-8 Plain Text
    Duration : 1 h 40 min
    Bit rate : 46 b/s
    Count of elements : 1340
    Stream size : 34.2 KiB (0%)
    Title : English (SRT - Google Play)
    Language : English
    Default : No
    Forced : No

    Text #2
    ID : 5
    Format : UTF-8
    Codec ID : S_TEXT/UTF8
    Codec ID/Info : UTF-8 Plain Text
    Duration : 8 s 968 ms
    Bit rate : 73 b/s
    Count of elements : 2
    Stream size : 82.0 Bytes (0%)
    Title : English (Forced - SRT - Google Play)
    Language : English
    Default : No
    Forced : No

    Text #3
    ID : 6
    Format : UTF-8
    Codec ID : S_TEXT/UTF8
    Codec ID/Info : UTF-8 Plain Text
    Duration : 1 h 42 min
    Bit rate : 82 b/s
    Count of elements : 937
    Stream size : 62.4 KiB (0%)
    Title : Thai (SRT - Google Play)
    Language : Thai
    Default : Yes
    Forced : No





    Download:filecondo
    Morbius.2022.1080p.WEB-DL.DDP5.1.Atmos.H.264.mkv - 5.8 GB
    Download:cornfile
    Morbius.2022.1080p.WEB-DL.DDP5.1.Atmos.H.264.mkv - 5.8 GB

  2. The Following 8 Users Say Thank You to Duckload.us For This Useful Post:

    apichartdear (05-20-2022), bigbang06 (05-21-2022), jackjangri (05-23-2022), Jodz14 (05-19-2022), kappa (05-19-2022), noi54 (05-20-2022), sawara (06-01-2022), Wesker_TOT (05-20-2022)

  3. #2
    Senior Member
    สมัครเมื่อ
    Jul 2013
    โพสต์
    100
    Thanks
    0
    Thanked 0 Times in 0 Posts
    ขอบคุณครับผม

  4. #3
    Senior Member
    สมัครเมื่อ
    Dec 2013
    โพสต์
    3,715
    Thanks
    5,622
    Thanked 0 Times in 0 Posts
    ขอบคุณครับ...

  5. #4
    I'm donate !
    สมัครเมื่อ
    Jun 2011
    โพสต์
    446
    Thanks
    601
    Thanked 40 Times in 29 Posts
    ขอบคุณครับผม

  6. #5
    Senior Member
    สมัครเมื่อ
    Jul 2013
    โพสต์
    3,348
    Thanks
    0
    Thanked 0 Times in 0 Posts
    ขอบคุณครับ
    เสียงพูดไทยเบามาก
    แก้ไขครั้งล่าสุดโดย mirin99 : 05-29-2022 เมื่อ 08:15 AM

+ ตอบกลับกระทู้

ข้อมูลกระทู้

Users Browsing this Thread

ในขณะนี้มี 1 ท่านดูกระทู้อยู่. (0 สมาชิกและ 1 ผู้เยี่ยมชม)

     

กฎการโพสต์ข้อความ

  • ท่าน ไม่สามารถ ตั้งกระทู้ใหม่ได้
  • ท่าน ไม่สามารถ ตอบกระทู้ได้
  • ท่าน ไม่สามารถ แนบไฟล์ได้
  • ท่าน ไม่สามารถ แก้ไขข้อความโพสต์ได้
  • BB code สถานะ เปิด
  • Smilies สถานะ เปิด
  • [IMG] สถานะ เปิด
  • HTML สถานะ ปิด