+ ตอบกลับกระทู้
สรุปผลการค้นหา 1 ถึง 3 จากทั้งหมด 3
  1. #1
    Administrators รูปส่วนตัว Duckload.us
    สมัครเมื่อ
    Dec 2010
    โพสต์
    139,860
    Thanks
    7
    Thanked 146,370 Times in 63,686 Posts

    Lightbulb [จีน]-Glory of Special Forces (2022) เกียรติยศหน่วยรบพิเศษ Ep.01-10 [พากย์ไทย บรรยายไทย]-WEB-DL.H.264.1080p. [Hi-def rip from Master]-[พากย์ไทย บรรยายไทย]




    
    หลังจากเรียนจบมัธยม เยี่ยนโพเยว่ (หยางหยาง) ได้สมัครเข้าร่วมกองทัพหน่วยรบพิเศษ เพื่อพิสูจน์ความสามารถให้พ่อของเขาได้เห็น และถึงแม้จะทำคะแนนระหว่างการฝึกได้สูงจนน่าตกตะลึง ผู้บังคับบัญชาหลี่เฉียง (อู๋เจี้ยน) ก็ยังไม่ยอมรับในตัวของเขาและส่งให้เยี่ยนโพเยว่ไปทำ งานที่โรงครัว แต่ด้วยความตั้งใจทำหน้าที่จนมีผลงานที่โดดเด่น เขาก็ได้รับโอกาสให้กลับเข้าร่วมหน่วยรบและทำตามความ ฝันอีกครั้ง หลังจากผ่านสภาพแวดล้อมที่ลำบากและภารกิจที่หนักอึ้ง เยี่ยนโพเยว่ก็ตระหนักได้ถึงปัญหาของตัวเองที่ไม่ชอบ ทำงานเป็นทีม เขาได้เรียนรู้จากเพื่อนทหารจนในที่สุดก็เข้าใจความส ำคัญของการทำงานเป็นทีม และกลายเป็นทหารหน่วยรบพิเศษที่ดีที่สุดคนหนึ่งของกอ งทัพ








    Video
    ID : 1
    Format : AVC
    Format/Info : Advanced Video Codec
    Format profile : [email protected]
    Format settings : CABAC / 4 Ref Frames
    Format settings, CABAC : Yes
    Format settings, Reference : 4 frames
    Codec ID : V_MPEG4/ISO/AVC
    Duration : 40 min 57 s
    Bit rate : 4 000 kb/s
    Width : 1 920 pixels
    Height : 1 080 pixels
    Display aspect ratio : 16:9
    Frame rate mode : Constant
    Frame rate : 25.000 FPS
    Color space : YUV
    Chroma subsampling : 4:2:0
    Bit depth : 8 bits
    Scan type : Progressive
    Bits/(Pixel*Frame) : 0.077
    Stream size : 1.16 GiB (94%)
    Title : Monomax
    Writing library : x264 core 148
    Encoding settings : cabac=1 / ref=3 / deblock=1:0:0 / analyse=0x3:0x113 / me=hex / subme=7 / psy=1 / psy_rd=1.00:0.00 / mixed_ref=1 / me_range=16 / chroma_me=1 / trellis=1 / 8x8dct=1 / cqm=0 / deadzone=21,11 / fast_pskip=1 / chroma_qp_offset=-2 / threads=18 / lookahead_threads=3 / sliced_threads=0 / nr=0 / decimate=1 / interlaced=0 / bluray_compat=0 / constrained_intra=0 / bframes=3 / b_pyramid=2 / b_adapt=1 / b_bias=0 / direct=1 / weightb=1 / open_gop=0 / weightp=2 / keyint=240 / keyint_min=121 / scenecut=40 / intra_refresh=0 / rc_lookahead=40 / rc=abr / mbtree=1 / bitrate=4000 / ratetol=1.0 / qcomp=0.60 / qpmin=0 / qpmax=69 / qpstep=4 / ip_ratio=1.40 / aq=1:1.00
    Language : Thai
    Default : Yes
    Forced : No

    Audio #1
    ID : 2
    Format : AAC LC
    Format/Info : Advanced Audio Codec Low Complexity
    Codec ID : A_AAC-2
    Duration : 40 min 57 s
    Bit rate : 128 kb/s
    Channel(s) : 2 channels
    Channel layout : L R
    Sampling rate : 48.0 kHz
    Frame rate : 46.875 FPS (1024 SPF)
    Compression mode : Lossy
    Stream size : 37.5 MiB (3%)
    Language : Thai
    Default : Yes
    Forced : No

    Audio #2
    ID : 3
    Format : AAC LC
    Format/Info : Advanced Audio Codec Low Complexity
    Codec ID : A_AAC-2
    Duration : 40 min 57 s
    Bit rate : 128 kb/s
    Channel(s) : 2 channels
    Channel layout : L R
    Sampling rate : 48.0 kHz
    Frame rate : 46.875 FPS (1024 SPF)
    Compression mode : Lossy
    Stream size : 37.5 MiB (3%)
    Language : Chinese
    Default : No
    Forced : No

    Text
    ID : 4
    Format : UTF-8
    Codec ID : S_TEXT/UTF8
    Codec ID/Info : UTF-8 Plain Text
    Duration : 37 min 27 s
    Bit rate : 112 b/s
    Count of elements : 658
    Stream size : 30.9 KiB (0%)
    Title : Thai Monomax
    Language : Thai
    Default : Yes
    Forced : No

    Glory.of.Special.Forces.2022.S01E10.1080p.WEB-DL.H.264.AAC.mkv
    http://www.filecondo.com/dl.php?f=b133711O16Go

    Glory.of.Special.Forces.2022.S01E09.1080p.WEB-DL.H.264.AAC.mkv
    http://www.filecondo.com/dl.php?f=G08d791O16FE

    Glory.of.Special.Forces.2022.S01E08.1080p.WEB-DL.H.264.AAC.mkv
    http://www.filecondo.com/dl.php?f=D05bbe1O16Dv

    Glory.of.Special.Forces.2022.S01E07.1080p.WEB-DL.H.264.AAC.mkv
    http://www.filecondo.com/dl.php?f=x978781O16B0

    Glory.of.Special.Forces.2022.S01E06.1080p.WEB-DL.H.264.AAC.mkv
    http://www.filecondo.com/dl.php?f=jd66171O16zr

    Glory.of.Special.Forces.2022.S01E05.1080p.WEB-DL.H.264.mkv
    http://www.filecondo.com/dl.php?f=e9b7e11NW90B

    Glory.of.Special.Forces.2022.S01E04.1080p.WEB-DL.H.264.mkv
    http://www.filecondo.com/dl.php?f=C47ad41NW8Vw

    Glory.of.Special.Forces.2022.S01E03.1080p.WEB-DL.H.264.mkv
    http://www.filecondo.com/dl.php?f=8919f11NW8QT

    Glory.of.Special.Forces.2022.S01E02.1080p.WEB-DL.H.264.mkv
    http://www.filecondo.com/dl.php?f=N95a681NW8LR

    Glory.of.Special.Forces.2022.S01E01.1080p.WEB-DL.H.264.mkv
    http://www.filecondo.com/dl.php?f=2543331NW8Fr

  2. #2
    Senior Member
    สมัครเมื่อ
    May 2011
    โพสต์
    154
    Thanks
    44
    Thanked 0 Times in 0 Posts
    จบแล้ว 5 ตอน ขอต่อเลยครับ

  3. #3
    Administrators รูปส่วนตัว Duckload.us
    สมัครเมื่อ
    Dec 2010
    โพสต์
    139,860
    Thanks
    7
    Thanked 146,370 Times in 63,686 Posts
    เกียรติยศหน่วยรบพิเศษ Ep.01-10

+ ตอบกลับกระทู้

ข้อมูลกระทู้

Users Browsing this Thread

ในขณะนี้มี 1 ท่านดูกระทู้อยู่. (0 สมาชิกและ 1 ผู้เยี่ยมชม)

     

กฎการโพสต์ข้อความ

  • ท่าน ไม่สามารถ ตั้งกระทู้ใหม่ได้
  • ท่าน ไม่สามารถ ตอบกระทู้ได้
  • ท่าน ไม่สามารถ แนบไฟล์ได้
  • ท่าน ไม่สามารถ แก้ไขข้อความโพสต์ได้
  • BB code สถานะ เปิด
  • Smilies สถานะ เปิด
  • [IMG] สถานะ เปิด
  • HTML สถานะ ปิด