+ ตอบกลับกระทู้
สรุปผลการค้นหา 1 ถึง 5 จากทั้งหมด 5
  1. #1
    Administrators รูปส่วนตัว Duckload.us
    สมัครเมื่อ
    Dec 2010
    โพสต์
    136,553
    Thanks
    7
    Thanked 141,368 Times in 61,965 Posts

    Thumbs up [ฝรั่ง] - Ms. Marvel (2022) Episode 01-04 - 1080p.WEB-DL [ เสียงอังกฤษ 5.1 + พากย์ไทย 5.1 ] ● [ บรรยายไทย + อังกฤษ PGS,SRT ] จาก Disney+ Hotstar TH






    Format : Matroska
    Format version : Version 4
    File size : 2.52 GiB
    Duration : 46 min 58 s
    Overall bit rate mode : Variable
    Overall bit rate : 7 674 kb/s
    Encoded date : UTC 2022-06-08 07:52:38
    Writing application : mkvmerge v26.0.0 ('In The Game') 64-bit
    Writing library : libebml v1.3.6 + libmatroska v1.4.9

    Video
    ID : 1
    Format : AVC
    Format/Info : Advanced Video Codec
    Format profile : [email protected]
    Format settings : CABAC / 4 Ref Frames
    Format settings, CABAC : Yes
    Format settings, Reference : 4 frames
    Codec ID : V_MPEG4/ISO/AVC
    Duration : 46 min 58 s
    Bit rate mode : Variable
    Bit rate : 6 680 kb/s
    Maximum bit rate : 12.7 Mb/s
    Width : 1 920 pixels
    Height : 1 080 pixels
    Display aspect ratio : 16:9
    Frame rate mode : Constant
    Frame rate : 24.000 FPS
    Color space : YUV
    Chroma subsampling : 4:2:0
    Bit depth : 8 bits
    Scan type : Progressive
    Bits/(Pixel*Frame) : 0.134
    Stream size : 2.19 GiB (87%)
    Language : English
    Default : Yes
    Forced : No
    Color range : Limited
    Color primaries : BT.709
    Transfer characteristics : BT.709
    Matrix coefficients : BT.709

    Audio #1
    ID : 2
    Format : E-AC-3 JOC
    Format/Info : Enhanced AC-3 with Joint Object Coding
    Commercial name : Dolby Digital Plus with Dolby Atmos
    Codec ID : A_EAC3
    Duration : 46 min 58 s
    Bit rate mode : Constant
    Bit rate : 768 kb/s
    Channel(s) : 6 channels
    Channel layout : L R C LFE Ls Rs
    Sampling rate : 48.0 kHz
    Frame rate : 31.250 FPS (1536 SPF)
    Compression mode : Lossy
    Stream size : 258 MiB (10%)
    Title : English 5.1
    Language : English
    Service kind : Complete Main
    Default : No
    Forced : No
    Complexity index : 16
    Number of dynamic objects : 15
    Bed channel count : 1 channel
    Bed channel configuration : LFE

    Audio #2
    ID : 3
    Format : E-AC-3
    Format/Info : Enhanced AC-3
    Commercial name : Dolby Digital Plus
    Codec ID : A_EAC3
    Duration : 46 min 58 s
    Bit rate mode : Constant
    Bit rate : 192 kb/s
    Channel(s) : 6 channels
    Channel layout : L R C LFE Ls Rs
    Sampling rate : 48.0 kHz
    Frame rate : 31.250 FPS (1536 SPF)
    Compression mode : Lossy
    Stream size : 64.5 MiB (3%)
    Title : Thai 5.1
    Language : Thai
    Service kind : Complete Main
    Default : Yes
    Forced : No

    Text #1
    ID : 4
    Format : PGS
    Codec ID : S_HDMV/PGS
    Codec ID/Info : Picture based subtitle format used on BDs/HD-DVDs
    Duration : 43 min 43 s
    Bit rate : 34.0 kb/s
    Count of elements : 1170
    Stream size : 10.6 MiB (0%)
    Title : Thai PGS
    Language : Thai
    Default : No
    Forced : No

    Text #2
    ID : 5
    Format : UTF-8
    Codec ID : S_TEXT/UTF8
    Codec ID/Info : UTF-8 Plain Text
    Duration : 46 min 19 s
    Bit rate : 134 b/s
    Count of elements : 586
    Stream size : 45.5 KiB (0%)
    Title : Thai SRT
    Language : Thai
    Default : No
    Forced : No

    Text #3
    ID : 6
    Format : UTF-8
    Codec ID : S_TEXT/UTF8
    Codec ID/Info : UTF-8 Plain Text
    Duration : 44 min 0 s
    Bit rate : 83 b/s
    Count of elements : 664
    Stream size : 26.9 KiB (0%)
    Title : English SRT
    Language : English
    Default : No
    Forced : No







    Download:filecondo
    1 http://www.filecondo.com/dl.php?f=w61e8d1NZn4e
    2 http://www.filecondo.com/dl.php?f=mf39971O1BTc
    3 http://www.filecondo.com/dl.php?f=7497dd1O3WNm
    4
    Ms.Marvel.S01E04.1080p.WEB.H264.TH.part1.rar
    http://www.filecondo.com/dl.php?f=Afbe8e1O6tAM
    Ms.Marvel.S01E04.1080p.WEB.H264.TH.part2.rar
    http://www.filecondo.com/dl.php?f=904dfa1O6tyg
    **โหลดแบบแบ่งไฟล์ก่อนนะครับ ระบบอัพแบบไฟล์เดียวมีปัญหา***

    Download:cornfile
    1 https://www.cornfile.com/4qznbxp1gcp8
    2 https://www.cornfile.com/q4v85gyj2ch5
    3 https://www.cornfile.com/cmpvnclav62w
    4 รอ..อัพ...พื้นที่เต็ม รอแอดมินเพิ่ม SV ใหม่ครับ

  2. The Following 4 Users Say Thank You to Duckload.us For This Useful Post:

    jackjangri (06-11-2022), jangska (06-15-2022), neorun (เมื่อวานนี้), Wesker_TOT (06-12-2022)

  3. #2
    I'm donate !
    สมัครเมื่อ
    Jun 2011
    โพสต์
    442
    Thanks
    597
    Thanked 40 Times in 29 Posts
    thank you...

  4. #3
    Senior Member
    สมัครเมื่อ
    Dec 2013
    โพสต์
    3,713
    Thanks
    5,620
    Thanked 0 Times in 0 Posts
    ขอบคุณครับ...

  5. #4
    Senior Member
    สมัครเมื่อ
    Jul 2013
    โพสต์
    3,335
    Thanks
    0
    Thanked 0 Times in 0 Posts
    ขอบคุณครับ แต่ IDM ไม่ทำงานอ่ะครับ บน Chrome
    แก้ไขครั้งล่าสุดโดย mirin99 : 06-15-2022 เมื่อ 08:11 PM

  6. #5
    Administrators รูปส่วนตัว Duckload.us
    สมัครเมื่อ
    Dec 2010
    โพสต์
    136,553
    Thanks
    7
    Thanked 141,368 Times in 61,965 Posts
    Ms. Marvel (2022) Episode 01-04 - 1080p.WEB-DL [ เสียงอังกฤษ 5.1 + พากย์ไทย 5.1 ]

+ ตอบกลับกระทู้

ข้อมูลกระทู้

Users Browsing this Thread

ในขณะนี้มี 20 ท่านดูกระทู้อยู่. (0 สมาชิกและ 20 ผู้เยี่ยมชม)

     

กฎการโพสต์ข้อความ

  • ท่าน ไม่สามารถ ตั้งกระทู้ใหม่ได้
  • ท่าน ไม่สามารถ ตอบกระทู้ได้
  • ท่าน ไม่สามารถ แนบไฟล์ได้
  • ท่าน ไม่สามารถ แก้ไขข้อความโพสต์ได้
  • BB code สถานะ เปิด
  • Smilies สถานะ เปิด
  • [IMG] สถานะ เปิด
  • HTML สถานะ ปิด