+ ตอบกลับกระทู้
สรุปผลการค้นหา 1 ถึง 3 จากทั้งหมด 3
  1. #1
    Administrators รูปส่วนตัว Duckload.us
    สมัครเมื่อ
    Dec 2010
    โพสต์
    137,562
    Thanks
    7
    Thanked 143,536 Times in 62,436 Posts

    Lightbulb [NETFLIX] Stranger Things (TV Series 2022) สเตรนเจอร์ ธิงส์ Season 4 Vol.1 [1080p][เสียงไทย5.1/อังกฤษ5.1+Atmos EAC-3][h264][ซับไทย Original NETFLIX PGS+Vobsub ]




    เรื่องย่อ
    เวลาผ่านไป 6 เดือนหลังจากการต่อสู้ที่สตาร์คอร์ทซึ่งสร้างความหวา ดผวาและความเสียหายให้กับผู้คนในเมืองฮอว์กินส์ ขณะที่เพื่อนๆ ในกลุ่มพยายามทำใจกับเหตุการณ์ที่เกิดขึ้น ทุกคนต้องแยกย้ายจากกันเป็นครั้งแรก และความซับซ้อนของชีวิตในรั้วมัธยมปลายก็ยิ่งทำให้ทุ กอย่างยากขึ้นไปอีก ในช่วงเวลาสุดเปราะบางนี้ ภัยคุกคามเหนือธรรมชาติครั้งใหม่ที่น่าสะพรึงกลัวก็เ ผยโฉมออกมาในรูปของปริศนาที่ชวนสยดสยอง ซึ่งถ้าหากไขความกระจ่างได้ก็อาจทำให้เรื่องราวอันน่ ากลัวของโลกกลับด้านปิดฉากลงไปได้เสียที

    นับตั้งแต่เริ่มเปิดตัวในปี 2016 ผลงานเรื่อง สเตรนเจอร์ ธิงส์ (Stranger Things) ที่สร้างปรากฏการณ์ทั่วโลกก็ได้รับรางวัลมาแล้วมากกว ่า 65 รางวัล และได้รับการเสนอชื่อเข้าชิงรางวัลถึง 175 รางวัล อาทิ รางวัลเอมมี่ รางวัลลูกโลกทองคำ รางวัลแกรมมี่ รางวัล SAG รางวัล DGA รางวัล PGA รางวัล WGA รางวัลบาฟต้า รางวัลพีบอดี้ รางวัล AFI สาขาซีรีส์แห่งปี รางวัล People’s Choice Awards รางวัลภาพยนตร์และโทรทัศน์ของเอ็มทีวี รางวัลทีนชอยส์ และอีกมากมาย ซีรีส์ที่ได้เข้าชิงรางวัลเอมมี่ 3 สมัยในสาขาดราม่ายอดเยี่ยมเรื่องนี้ติดอันดับผลงานจา ก Netflix ที่มีผู้ชมสูงสุด โดยซีซั่น 3 มียอดการรับชม 582 ล้านชั่วโมงและติด 2 ใน 10 อันดับแรกของผลงานซีรีส์ภาษาอังกฤษจาก Netflix ที่ได้รับความนิยมสูงสุด ทั้งนี้ Stranger Things เป็นผลงานสร้างของพี่น้องดัฟเฟอร์ และผลงานผลิตของ Monkey Massacre Productions กับ 21 Laps Entertainment โดยพี่น้องดัฟเฟอร์ทำหน้าที่เป็นผู้อำนวยการสร้างซีร ีส์ร่วมกับชอว์น เลวี่และแดน โคเฮนจาก 21 Laps Entertainment รวมทั้งเอียน แพเทอร์สัน และเคอร์ทิส กวินน์

    นักแสดง: วิโนนา ไรเดอร์ (จอยซ์ ไบเออร์ส) เดวิด ฮาร์เบอร์ (จิม ฮ็อปเปอร์) มิลลี่ บ็อบบี บราวน์ (อีเลเว่น) ฟินน์ วูล์ฟฮาร์ด (ไมค์ วีลเลอร์) เกเทน มาทาราซโซ (ดัสติน เฮนเดอร์สัน) เคเลบ แมคลอฟลิน (ลูคัส ซินแคลร์) โนอาห์ ชแนปป์ (วิล ไบเออร์ส) เซดี้ ซิงค์ (แม็กซ์ เมย์ฟิลด์) นาตาเลีย ไดย์เออร์ (แนนซี่ วีลเลอร์) ชาร์ลี ฮีตัน (โจนาธาน ไบเออร์ส) โจ คีรี่ (สตีฟ แฮร์ริงตัน) มายา ฮอว์ก (โรบิน บัคลีย์) พรีอาห์ เฟอร์กูสัน (เอริก้า ซินแคลร์) เบรตต์ เกลแมน (เมอร์เรย์) คาร่า บูโอโน่ (คาเรน วีลเลอร์) และแมทธิว โมดีน (ดร.เบรนเนอร์)

    นักแสดงสมทบ: เจมี่ แคมป์เบลล์ บาวเวอร์ (ปีเตอร์ บัลลาร์ด) โจเซฟ ควินน์ (เอ็ดดี้ มันสัน) เอดูอาร์โด ฟรังโก (อาร์ไกล์) เชอร์แมน ออกัสตัส (พันโทซัลลิแวน) เมสัน ไดย์ (เจสัน คาร์เวอร์) นิโคลา ดยูริซโก (ยูริ) ทอม วลาชีฮา (ดมิทรี) ไมลส์ ทรูตต์ (แพทริค) เรจิน่า ทิง เชน (ครูเคลลี่) เกรซ แวน ดีน (คริสซี่) โลแกน ไรลีย์ บรูเนอร์ (เฟรด เบนสัน) โลแกน อัลเลน (เจค) เอโลดี้ เกรซ ออร์คิน (แองเจล่า) จอห์น เรย์โนลด์ส (เจ้าหน้าที่คาลลาฮาน) ร็อบ มอร์แกน (หัวหน้าพาวเวลล์) อมีเบธ แมคนัลตี้ (วิคกี้) และโรเบิร์ต เองลันด์ (วิกเตอร์ ครีล)

    ชุด 2 จะเปิดตัวในวันที่ 1 กรกฎาคม













    Format : Matroska
    Format version : Version 4 / Version 2
    File size : 8.59 GiB
    Duration : 1 h 18 min
    Overall bit rate mode : Variable
    Overall bit rate : 15.7 Mb/s
    Movie name : Stranger Things (TV Series 2022) [email protected]
    Encoded date : UTC 2022-05-28 01:18:08
    Writing application : mkvmerge v63.0.0 ('Everything') 64-bit
    Writing library : libebml v1.4.2 + libmatroska v1.6.4

    Video
    ID : 1
    Format : AVC
    Format/Info : Advanced Video Codec
    Format profile : [email protected]
    Format settings, CABAC : Yes
    Format settings, RefFrames : 4 frames
    Codec ID : V_MPEG4/ISO/AVC
    Duration : 1 h 18 min
    Bit rate mode : Variable
    Bit rate : 12.9 Mb/s
    Maximum bit rate : 20.0 Mb/s
    Width : 1 920 pixels
    Height : 1 080 pixels
    Display aspect ratio : 16:9
    Frame rate mode : Variable
    Frame rate : 47.952 (47952/1000) FPS
    Original frame rate : 23.976 (24000/1001) FPS
    Color space : YUV
    Chroma subsampling : 4:2:0
    Bit depth : 8 bits
    Scan type : Progressive
    Bits/(Pixel*Frame) : 0.129
    Stream size : 7.02 GiB (82%)
    Writing library : x264 core 148 r2727 7d026e8
    Encoding settings : cabac=1 / ref=4 / deblock=1:0:0 / analyse=0x3:0x111 / me=umh / subme=10 / psy=1 / psy_rd=1.00:0.00 / mixed_ref=1 / me_range=120 / chroma_me=1 / trellis=2 / 8x8dct=1 / cqm=0 / deadzone=21,11 / fast_pskip=1 / chroma_qp_offset=-2 / threads=8 / lookahead_threads=2 / sliced_threads=0 / nr=0 / decimate=1 / interlaced=0 / bluray_compat=0 / stitchable=1 / constrained_intra=0 / bframes=16 / b_pyramid=2 / b_adapt=2 / b_bias=0 / direct=3 / weightb=1 / open_gop=0 / weightp=2 / keyint=240 / keyint_min=121 / scenecut=0 / intra_refresh=0 / rc_lookahead=240 / rc=crf / mbtree=1 / crf=19.0 / qcomp=0.50 / qpmin=6 / qpmax=51 / qpstep=4 / vbv_maxrate=20000 / vbv_bufsize=25000 / crf_max=0.0 / nal_hrd=vbr / filler=0 / ip_ratio=1.40 / aq=1:0.80
    Default : Yes
    Forced : No

    Audio #1
    ID : 2
    Format : E-AC-3
    Format/Info : Enhanced Audio Coding 3
    Format settings, Endianness : Big
    Codec ID : A_EAC3
    Duration : 1 h 18 min
    Bit rate mode : Constant
    Bit rate : 640 kb/s
    Channel(s) : 6 channels
    Channel positions : Front: L C R, Side: L R, LFE
    Sampling rate : 48.0 kHz
    Frame rate : 187.500 FPS (256 SPF)
    Compression mode : Lossy
    Stream size : 716 MiB (8%)
    Title : Thai-DDP 5.1
    Language : Thai
    Service kind : Complete Main
    Default : Yes
    Forced : Yes

    Audio #2
    ID : 3
    Format : E-AC-3
    Format/Info : Enhanced Audio Coding 3
    Format profile : E-AC-3+Atmos / E-AC-3
    Format settings, Endianness : Big
    Codec ID : A_EAC3
    Duration : 1 h 18 min
    Bit rate mode : Constant
    Bit rate : 768 kb/s
    Channel(s) : 15 objects / 6 channels
    Channel positions : 15 objects / Front: L C R, Side: L R, LFE
    Sampling rate : 48.0 kHz
    Frame rate : 187.500 FPS (256 SPF)
    Compression mode : Lossy
    Stream size : 859 MiB (10%)
    Title : English-DDP 5.1
    Language : English
    Service kind : Complete Main
    Default : Yes
    Forced : No

    Text #1
    ID : 4
    Format : PGS
    Muxing mode : zlib
    Codec ID : S_HDMV/PGS
    Codec ID/Info : Picture based subtitle format used on BDs/HD-DVDs
    Duration : 1 h 13 min
    Bit rate : 2 090 b/s
    Count of elements : 80
    Stream size : 1.10 MiB (0%)
    Title : Thai-FORCED PGS From Original NETFLIX
    Language : Thai
    Default : Yes
    Forced : Yes

    Text #2
    ID : 5
    Format : PGS
    Muxing mode : zlib
    Codec ID : S_HDMV/PGS
    Codec ID/Info : Picture based subtitle format used on BDs/HD-DVDs
    Duration : 1 h 13 min
    Bit rate : 52.2 kb/s
    Count of elements : 2040
    Stream size : 27.5 MiB (0%)
    Title : Thai-PGS From Original NETFLIX
    Language : Thai
    Default : Yes
    Forced : No

    Text #3
    ID : 6
    Format : VobSub
    Muxing mode : zlib
    Codec ID : S_VOBSUB
    Codec ID/Info : Picture based subtitle format used on DVDs
    Duration : 1 h 13 min
    Bit rate : 10.2 kb/s
    Count of elements : 1020
    Stream size : 5.37 MiB (0%)
    Title : Thai-VOBSUB From Original NETFLIX
    Language : Thai
    Default : Yes
    Forced : No

    Text #4
    ID : 7
    Format : UTF-8
    Codec ID : S_TEXT/UTF8
    Codec ID/Info : UTF-8 Plain Text
    Duration : 1 h 12 min
    Bit rate : 70 b/s
    Count of elements : 1291
    Stream size : 37.7 KiB (0%)
    Title : English-SRT
    Language : English
    Default : Yes
    Forced : No

    Stranger.Things.2022.S04E07.1080p.NF.APP-DL.DDP5.1.h264.mkv
    http://www.filecondo.com/dl.php?f=m4498e1NYidp

    Stranger.Things.2022.S04E06.1080p.NF.APP-DL.DDP5.1.h264.mkv
    http://www.filecondo.com/dl.php?f=kbfa111NYici

    Stranger.Things.2022.S04E05.1080p.NF.APP-DL.DDP5.1.h264.mkv
    http://www.filecondo.com/dl.php?f=84aa811NYibl

    Stranger.Things.2022.S04E04.1080p.NF.APP-DL.DDP5.1.h264.mkv
    http://www.filecondo.com/dl.php?f=Dd0c511NYiaq

    Stranger.Things.2022.S04E03.1080p.NF.APP-DL.DDP5.1.h264.mkv
    http://www.filecondo.com/dl.php?f=u101761NYi9k

    Stranger.Things.2022.S04E02.1080p.NF.APP-DL.DDP5.1.h264.mkv
    http://www.filecondo.com/dl.php?f=p8fc931NYi8t

    Stranger.Things.2022.S04E01.1080p.NF.APP-DL.DDP5.1.h264.mkv
    http://www.filecondo.com/dl.php?f=w1b5e91NYi7F

  2. The Following 2 Users Say Thank You to Duckload.us For This Useful Post:

    mettset (07-02-2022), whiteherbie (06-17-2022)

  3. #2
    Senior Member
    สมัครเมื่อ
    Dec 2011
    โพสต์
    2,833
    Thanks
    385
    Thanked 0 Times in 0 Posts
    ขอบคุณนะคะ

  4. #3
    Administrators รูปส่วนตัว Duckload.us
    สมัครเมื่อ
    Dec 2010
    โพสต์
    137,562
    Thanks
    7
    Thanked 143,536 Times in 62,436 Posts
    Stranger Things (TV Series 2022) สเตรนเจอร์ ธิงส์ Season 4 Vol.1

+ ตอบกลับกระทู้

ข้อมูลกระทู้

Users Browsing this Thread

ในขณะนี้มี 1 ท่านดูกระทู้อยู่. (0 สมาชิกและ 1 ผู้เยี่ยมชม)

     

กฎการโพสต์ข้อความ

  • ท่าน ไม่สามารถ ตั้งกระทู้ใหม่ได้
  • ท่าน ไม่สามารถ ตอบกระทู้ได้
  • ท่าน ไม่สามารถ แนบไฟล์ได้
  • ท่าน ไม่สามารถ แก้ไขข้อความโพสต์ได้
  • BB code สถานะ เปิด
  • Smilies สถานะ เปิด
  • [IMG] สถานะ เปิด
  • HTML สถานะ ปิด