+ ตอบกลับกระทู้
สรุปผลการค้นหา 1 ถึง 5 จากทั้งหมด 5
  1. #1
    Administrators รูปส่วนตัว Duckload.us
    สมัครเมื่อ
    Dec 2010
    โพสต์
    136,553
    Thanks
    7
    Thanked 141,368 Times in 61,965 Posts

    Thumbs up [ฝรั่ง]-Top Gun (1986) REMASTERED ท็อปกัน ฟ้าเหนือฟ้า-Blu-ray.DTS.1080p. [Modified]-[พากย์อังกฤษ 5.1 ไทย 5.1 บรรยายไทย (Master)-อังกฤษ]




    มาเวอริค เป็นนักบินมือหนึ่ง เมื่อเขาพบเครื่องบิน มิก 2 ลำอยู่เหนืออ่าว เปอร์เซีย เครื่องบินลูกฝูงของเขาบินล้ำหน้าไป และทำท่าเหมือนมีบางอย่างผิดปกติ เมื่อน้ำมันใกล้หมด มาเวอริค จึงสามารถพูดให้เขากลับเข้ามาในฝูงบิน เมื่อเครื่องบินลูกฝูงกลับสู่ตำแหน่ง มาเวอริคได้รับเลื่อนตำแหน่ง และได้ไปเรียนใน Top Gun Naval Flying School ที่นั่นเขาต้องต่อสู้กับทัศนคติของนักบิน คนอื่นๆ และเรื่องเก่าๆ เกี่ยวกับการเสียชีวิตของพ่อเขา ในการต่อสู่ซึ่งทำให้คนอื่นเสียชีวิตไปด้วย เนื่องจากความผิดพลาดของพ่อ มาเวอริคต้องต่อสู้เพื่อให้ได้เป็น นักบินที่ยอดเยี่ยม เขาทำให้นักเรียนคนอื่นๆ ไม่พอใจ และยังมีเรื่อง ชาร์ลี ครูที่เป็นพลเรือนซึ่งเขาชอบพออยู่


    Format : Matroska
    Format version : Version 4
    File size : 4.34 GiB
    Duration : 1 h 49 min
    Overall bit rate : 5 663 kb/s
    Encoded date : UTC 2022-06-12 06:21:25
    Writing application : mkvmerge v55.0.0 ('Waiting For Space') 64-bit
    Writing library : libebml v1.4.2 + libmatroska v1.6.4

    Video
    ID : 1
    Format : AVC
    Format/Info : Advanced Video Codec
    Format profile : [email protected]
    Format settings : CABAC / 3 Ref Frames
    Format settings, CABAC : Yes
    Format settings, Reference : 3 frames
    Codec ID : V_MPEG4/ISO/AVC
    Duration : 1 h 49 min
    Bit rate : 3 508 kb/s
    Width : 1 920 pixels
    Height : 800 pixels
    Display aspect ratio : 2.40:1
    Frame rate mode : Constant
    Frame rate : 23.976 (24000/1001) FPS
    Color space : YUV
    Chroma subsampling : 4:2:0
    Bit depth : 8 bits
    Scan type : Progressive
    Bits/(Pixel*Frame) : 0.095
    Stream size : 2.68 GiB (62%)
    Language : English
    Default : Yes
    Forced : No

    Audio #1
    ID : 2
    Format : DTS
    Format/Info : Digital Theater Systems
    Codec ID : A_DTS
    Duration : 1 h 49 min
    Bit rate mode : Constant
    Bit rate : 1 509 kb/s
    Channel(s) : 6 channels
    Channel layout : C L R Ls Rs LFE
    Sampling rate : 48.0 kHz
    Frame rate : 93.750 FPS (512 SPF)
    Bit depth : 24 bits
    Compression mode : Lossy
    Stream size : 1.15 GiB (27%)
    Title : DTS English
    Language : English
    Default : Yes
    Forced : No

    Audio #2
    ID : 3
    Format : AC-3
    Format/Info : Audio Coding 3
    Commercial name : Dolby Digital
    Codec ID : A_AC3
    Duration : 1 h 49 min
    Bit rate mode : Constant
    Bit rate : 640 kb/s
    Channel(s) : 6 channels
    Channel layout : L R C LFE Ls Rs
    Sampling rate : 48.0 kHz
    Frame rate : 31.250 FPS (1536 SPF)
    Compression mode : Lossy
    Delay relative to video : 4 s 950 ms
    Stream size : 502 MiB (11%)
    Title : AC-3 Thai
    Language : Thai
    Service kind : Complete Main
    Default : No
    Forced : No

    Text #1
    ID : 4
    Format : VobSub
    Muxing mode : zlib
    Codec ID : S_VOBSUB
    Codec ID/Info : Picture based subtitle format used on DVDs
    Duration : 1 h 43 min
    Bit rate : 7 585 b/s
    Count of elements : 1023
    Stream size : 5.63 MiB (0%)
    Title : Sub Thai 1080p
    Language : Thai
    Default : No
    Forced : No

    Text #2
    ID : 5
    Format : UTF-8
    Codec ID : S_TEXT/UTF8
    Codec ID/Info : UTF-8 Plain Text
    Duration : 1 h 43 min
    Bit rate : 78 b/s
    Count of elements : 1023
    Stream size : 59.4 KiB (0%)
    Title : Sub Thai SRT
    Language : Thai
    Default : No
    Forced : No

    Text #3
    ID : 6
    Format : PGS
    Muxing mode : zlib
    Codec ID : S_HDMV/PGS
    Codec ID/Info : Picture based subtitle format used on BDs/HD-DVDs
    Duration : 1 h 43 min
    Bit rate : 23.0 kb/s
    Count of elements : 2046
    Stream size : 17.1 MiB (0%)
    Title : Sub Thai PGS
    Language : Thai
    Default : Yes
    Forced : No

    Text #4
    ID : 7
    Format : UTF-8
    Codec ID : S_TEXT/UTF8
    Codec ID/Info : UTF-8 Plain Text
    Duration : 1 h 40 min
    Bit rate : 59 b/s
    Count of elements : 1386
    Stream size : 43.5 KiB (0%)
    Title : Sub English SRT
    Language : English
    Default : No
    Forced : No

    Menu
    00:00:00.000 : en:Chapter 01
    00:02:45.290 : en:Chapter 02
    00:12:50.352 : en:Chapter 03
    00:19:08.689 : en:Chapter 04
    00:25:45.418 : en:Chapter 05
    00:29:31.394 : en:Chapter 06
    00:39:12.391 : en:Chapter 07
    00:48:04.464 : en:Chapter 08
    00:55:28.033 : en:Chapter 09
    01:01:32.772 : en:Chapter 10
    01:04:04.507 : en:Chapter 11
    01:13:42.960 : en:Chapter 12
    01:21:14.828 : en:Chapter 13
    01:27:09.891 : en:Chapter 14
    01:34:23.991 : en:Chapter 15






    Download:filecondo
    Top.Gun.1996.1080p.Regrade.10bit.BluRay.60FPS.x265 .HEVC.mkv
    http://www.filecondo.com/dl.php?f=c469771O0HD7
    Top_Gun_(1986)_REMASTERED.mkv
    http://www.filecondo.com/dl.php?f=N1b33c1O0HxD

    Download:cornfile
    Top Gun (1986) REMASTERED.mkv - 4.3 GB
    Top.Gun.1996.1080p.Regrade.10bit.BluRay.60FPS.x265 .HEVC.mkv - 3.4 GB

  2. The Following 6 Users Say Thank You to Duckload.us For This Useful Post:

    bigbang06 (06-17-2022), jackjangri (06-17-2022), PeBomb (06-18-2022), sawara (เมื่อวานนี้), Wesker_TOT (06-18-2022), whiteherbie (06-17-2022)

  3. #2
    I'm donate !
    สมัครเมื่อ
    Jun 2011
    โพสต์
    442
    Thanks
    597
    Thanked 40 Times in 29 Posts
    thank you...

  4. #3
    Senior Member
    สมัครเมื่อ
    Dec 2011
    โพสต์
    2,799
    Thanks
    352
    Thanked 0 Times in 0 Posts
    ยังคิดอยู่เลยว่าจะหาภาคแรกมาดูยังไงดี แอดมินก็หามาให้โหลดเรียบร้อย ขอบคุณมากค่ะ โหลดแบบ Remastered จะมีทั้งเสียงไทย อังกฤษ และซับไทย นะคะ

  5. #4
    Senior Member
    สมัครเมื่อ
    Dec 2013
    โพสต์
    3,713
    Thanks
    5,620
    Thanked 0 Times in 0 Posts
    ขอบคุณครับ...

  6. #5
    Senior Member
    สมัครเมื่อ
    Dec 2013
    โพสต์
    639
    Thanks
    581
    Thanked 0 Times in 0 Posts
    ขอบคุณครับบ

+ ตอบกลับกระทู้

ข้อมูลกระทู้

Users Browsing this Thread

ในขณะนี้มี 1 ท่านดูกระทู้อยู่. (0 สมาชิกและ 1 ผู้เยี่ยมชม)

     

กฎการโพสต์ข้อความ

  • ท่าน ไม่สามารถ ตั้งกระทู้ใหม่ได้
  • ท่าน ไม่สามารถ ตอบกระทู้ได้
  • ท่าน ไม่สามารถ แนบไฟล์ได้
  • ท่าน ไม่สามารถ แก้ไขข้อความโพสต์ได้
  • BB code สถานะ เปิด
  • Smilies สถานะ เปิด
  • [IMG] สถานะ เปิด
  • HTML สถานะ ปิด