+ ตอบกลับกระทู้
สรุปผลการค้นหา 1 ถึง 2 จากทั้งหมด 2
  1. #1
    Administrators รูปส่วนตัว Duckload.us
    สมัครเมื่อ
    Dec 2010
    โพสต์
    136,553
    Thanks
    7
    Thanked 141,368 Times in 61,965 Posts

    Thumbs up [ฝรั่ง] Stillwater (2021) [พากย์:อังกฤษ/ไทย มาสเตอร์][SUB:ไทย/อังกฤษ][1080ip]



    เมื่อลูกสาวถูกจับกุมขังคุกในฝรั่งเศสด้วยข้อหาฆาตกร รมที่เธอบอกว่าไม่ได้เป็นคนทำ ชายหนุ่มคนงานบ่อน้ำมันตัดสินใจเดินทางไปฝรั่งเศสในค วามพยายามเฮือกสุดท้ายที่จะล้างมลทินให้ลูกสาว ต้องเผชิญกำแพงทางภาษาและวัฒนธรรม และระบบกฎหมายที่ซับซ้อน แต่ระหว่างที่อยู่ที่นั่น เขาได้สร้างชีวิตใหม่ให้ตัวเองในฝรั่งเศสไปพร้อมกัน

    Format : Matroska
    Format version : Version 4
    File size : 4.74 GiB
    Duration : 2 h 19 min
    Overall bit rate : 4 864 kb/s
    Movie name : Stillwater.2021_©GOLD CUP™_WWW.TT-TORRENT.COM

    Video
    ID : 1
    Format : AVC
    Format/Info : Advanced Video Codec
    Format profile : [email protected]
    Format settings : CABAC / 3 Ref Frames
    Format settings, CABAC : Yes
    Format settings, Reference : 3 frames
    Codec ID : V_MPEG4/ISO/AVC
    Duration : 2 h 19 min
    Bit rate : 4 012 kb/s
    Width : 1 920 pixels
    Height : 1 040 pixels
    Display aspect ratio : 1.85:1
    Frame rate mode : Constant
    Frame rate : 23.976 (24000/1001) FPS
    Color space : YUV
    Chroma subsampling : 4:2:0
    Bit depth : 8 bits
    Scan type : Progressive
    Bits/(Pixel*Frame) : 0.084
    Stream size : 3.91 GiB (82%)
    Title : Stillwater.2021_©GOLD CUP™
    Language : English
    Default : Yes
    Forced : No
    Color range : Limited
    Color primaries : BT.709
    Transfer characteristics : BT.709
    Matrix coefficients : BT.709

    Audio #1
    ID : 2
    Format : E-AC-3
    Format/Info : Enhanced AC-3
    Commercial name : Dolby Digital Plus
    Codec ID : A_EAC3
    Duration : 2 h 19 min
    Bit rate mode : Constant
    Bit rate : 640 kb/s
    Channel(s) : 6 channels
    Channel layout : L R C LFE Ls Rs
    Sampling rate : 48.0 kHz
    Frame rate : 31.250 FPS (1536 SPF)
    Compression mode : Lossy
    Stream size : 638 MiB (13%)
    Title : .AC3_640 kbs.6 channelsolby Digital Plus
    Language : English
    Service kind : Complete Main
    Default : Yes
    Forced : No

    Audio #2
    ID : 3
    Format : AC-3
    Format/Info : Audio Coding 3
    Commercial name : Dolby Digital
    Codec ID : A_AC3
    Duration : 2 h 19 min
    Bit rate mode : Constant
    Bit rate : 192 kb/s
    Channel(s) : 2 channels
    Channel layout : L R
    Sampling rate : 48.0 kHz
    Frame rate : 31.250 FPS (1536 SPF)
    Compression mode : Lossy
    Stream size : 191 MiB (4%)
    Title : Th.2.0.AC3.192k
    Language : Thai
    Service kind : Complete Main
    Default : Yes
    Forced : No

    Text #1
    ID : 4
    Format : PGS
    Muxing mode : zlib
    Codec ID : S_HDMV/PGS
    Codec ID/Info : Picture based subtitle format used on BDs/HD-DVDs
    Duration : 2 h 11 min
    Bit rate : 36.5 kb/s
    Count of elements : 3846
    Stream size : 34.3 MiB (1%)
    Title : Th.3.100.90.White
    Language : Thai
    Default : No
    Forced : No

    Text #2
    ID : 5
    Format : UTF-8
    Codec ID : S_TEXT/UTF8
    Codec ID/Info : UTF-8 Plain Text
    Duration : 2 h 18 min
    Bit rate : 49 b/s
    Count of elements : 2089
    Stream size : 49.8 KiB (0%)
    Title : Sub English SRT
    Language : English
    Default : No
    Forced : No





    Download:filecondo
    Stillwater.2021_GOLD_CUP.mkv
    http://www.filecondo.com/dl.php?f=r2b2ee1O2Uta
    Download:cornfile
    https://www.cornfile.com/n87nnqu7pcth

  2. The Following 3 Users Say Thank You to Duckload.us For This Useful Post:

    Jodz14 (06-20-2022), noi54 (06-20-2022), Wesker_TOT (06-20-2022)

  3. #2
    Senior Member
    สมัครเมื่อ
    Dec 2013
    โพสต์
    3,713
    Thanks
    5,620
    Thanked 0 Times in 0 Posts
    ขอบคุณครับ...

+ ตอบกลับกระทู้

ข้อมูลกระทู้

Users Browsing this Thread

ในขณะนี้มี 1 ท่านดูกระทู้อยู่. (0 สมาชิกและ 1 ผู้เยี่ยมชม)

     

กฎการโพสต์ข้อความ

  • ท่าน ไม่สามารถ ตั้งกระทู้ใหม่ได้
  • ท่าน ไม่สามารถ ตอบกระทู้ได้
  • ท่าน ไม่สามารถ แนบไฟล์ได้
  • ท่าน ไม่สามารถ แก้ไขข้อความโพสต์ได้
  • BB code สถานะ เปิด
  • Smilies สถานะ เปิด
  • [IMG] สถานะ เปิด
  • HTML สถานะ ปิด