เพื่อสานฝันการมีอะพาร์ตเมนต์เป็นของตัวเอง ยุนแซบม (ฮันฮโยจู) ตำรวจหญิงหน่วยปฏิบัติการพิเศษได้ไปขอร้องให้เพื่อนส มัยเรียนอย่าง สายสืบจองอีฮยอน (พัคฮยองชิก) แต่งงานกับเธอเพื่อที่จะได้โควต้าอยู่อาศัยสำหรับคู่ แต่งงานใหม่ หลังจากย้ายเข้าไปในอะพาร์ตเมนต์ได้ไม่นานก็เกิดเหตุ การณ์โรคระบาดครั้งใหม่ที่ทำให้ผู้ติดเชื้อเกิดอาการ คลุ้มคลั่งกระหายเลือด รัฐบาลจึงมีมาตรการสั่งปิดอะพาร์ตเมนต์ให้กลายเป็นเข ตกักกันโรคโดยที่ผู้อยู่อาศัยไม่ทันได้ตั้งตัว ยุนแซบมและจองอีฮยอนต้องร่วมมือกันหาทางเอาชีวิตรอดไ ปพร้อม ๆ กับการสืบหาต้นตอของเรื่องราวทั้งหมด โดยมี พันโทฮันแทซอก (โจอูจิน) เป็นกุญแจสำคัญในการไขความลับวิกฤตโรคระบาดครั้งใหม่








Video
ID : 1
Format : AVC
Format/Info : Advanced Video Codec
Format profile : [email protected]
Format settings : CABAC / 4 Ref Frames
Format settings, CABAC : Yes
Format settings, Reference : 4 frames
Codec ID : V_MPEG4/ISO/AVC
Duration : 1 h 12 min
Bit rate : 4 000 kb/s
Width : 1 920 pixels
Height : 1 080 pixels
Display aspect ratio : 16:9
Frame rate mode : Constant
Frame rate : 29.970 (30000/1001) FPS
Color space : YUV
Chroma subsampling : 4:2:0
Bit depth : 8 bits
Scan type : Progressive
Bits/(Pixel*Frame) : 0.064
Stream size : 2.03 GiB (86%)
Title : Monomax
Writing library : x264 core 148
Encoding settings : cabac=1 / ref=3 / deblock=1:0:0 / analyse=0x3:0x113 / me=hex / subme=7 / psy=1 / psy_rd=1.00:0.00 / mixed_ref=1 / me_range=16 / chroma_me=1 / trellis=1 / 8x8dct=1 / cqm=0 / deadzone=21,11 / fast_pskip=1 / chroma_qp_offset=-2 / threads=18 / lookahead_threads=3 / sliced_threads=0 / nr=0 / decimate=1 / interlaced=0 / bluray_compat=0 / constrained_intra=0 / bframes=3 / b_pyramid=2 / b_adapt=1 / b_bias=0 / direct=1 / weightb=1 / open_gop=0 / weightp=2 / keyint=240 / keyint_min=121 / scenecut=40 / intra_refresh=0 / rc_lookahead=40 / rc=abr / mbtree=1 / bitrate=4000 / ratetol=1.0 / qcomp=0.60 / qpmin=0 / qpmax=69 / qpstep=4 / ip_ratio=1.40 / aq=1:1.00
Language : Thai
Default : Yes
Forced : No

Audio #1
ID : 2
Format : AAC LC
Format/Info : Advanced Audio Codec Low Complexity
Codec ID : A_AAC-2
Duration : 1 h 12 min
Bit rate : 128 kb/s
Channel(s) : 2 channels
Channel layout : L R
Sampling rate : 48.0 kHz
Frame rate : 46.875 FPS (1024 SPF)
Compression mode : Lossy
Stream size : 66.6 MiB (3%)
Title : Monomax
Language : Thai
Default : No
Forced : No

Audio #2
ID : 3
Format : AAC LC
Format/Info : Advanced Audio Codec Low Complexity
Codec ID : A_AAC-2
Duration : 1 h 12 min
Bit rate : 128 kb/s
Channel(s) : 2 channels
Channel layout : L R
Sampling rate : 48.0 kHz
Frame rate : 46.875 FPS (1024 SPF)
Compression mode : Lossy
Stream size : 66.6 MiB (3%)
Language : Korean
Default : No
Forced : No

Audio #3
ID : 4
Format : AAC LC
Format/Info : Advanced Audio Codec Low Complexity
Codec ID : A_AAC-2
Duration : 1 h 12 min
Bit rate : 192 kb/s
Channel(s) : 2 channels
Channel layout : L R
Sampling rate : 48.0 kHz
Frame rate : 46.875 FPS (1024 SPF)
Compression mode : Lossy
Stream size : 100 MiB (4%)
Title : Trueid
Language : Thai
Default : No
Forced : No

Audio #4
ID : 5
Format : AAC LC
Format/Info : Advanced Audio Codec Low Complexity
Codec ID : A_AAC-2
Duration : 1 h 12 min
Bit rate : 192 kb/s
Channel(s) : 2 channels
Channel layout : L R
Sampling rate : 48.0 kHz
Frame rate : 46.875 FPS (1024 SPF)
Compression mode : Lossy
Stream size : 101 MiB (4%)
Title : VIU
Language : Thai
Default : No
Forced : No

Text
ID : 6
Format : UTF-8
Codec ID : S_TEXT/UTF8
Codec ID/Info : UTF-8 Plain Text
Duration : 1 h 11 min
Bit rate : 99 b/s
Count of elements : 666
Stream size : 52.2 KiB (0%)
Title : Thai Monomax
Language : Thai
Default : Yes
Forced : No



Happiness.2021.S01E12.1080p.WEB-DL.AAC.x264-(Spark751).mkv
http://www.filecondo.com/dl.php?f=Sbb7fe1O3I0f

Happiness.2021.S01E11.1080p.WEB-DL.AAC.x264-(Spark751).mkv
http://www.filecondo.com/dl.php?f=r30ef21O3HZh

Happiness.2021.S01E10.1080p.WEB-DL.AAC.x264-(Spark751).mkv
http://www.filecondo.com/dl.php?f=60e9851O3HYu

Happiness.2021.S01E09.1080p.WEB-DL.AAC.x264-(Spark751).mkv
http://www.filecondo.com/dl.php?f=D366b01O3HXk

Happiness.2021.S01E08.1080p.WEB-DL.AAC.x264-(Spark751).mkv
http://www.filecondo.com/dl.php?f=o918b11O3HWr

Happiness.2021.S01E07.1080p.WEB-DL.AAC.x264-(Spark751).mkv
http://www.filecondo.com/dl.php?f=8887331O3HVp

Happiness.2021.S01E06.1080p.WEB-DL.AAC.x264-(Spark751).mkv
http://www.filecondo.com/dl.php?f=J726a21O3HUr

Happiness.2021.S01E05.1080p.WEB-DL.AAC.x264-(Spark751).mkv
http://www.filecondo.com/dl.php?f=re09621O3HTS

Happiness.2021.S01E04.1080p.WEB-DL.AAC.x264-(Spark751).mkv
http://www.filecondo.com/dl.php?f=l3ee971O3HSp

Happiness.2021.S01E03.1080p.WEB-DL.AAC.x264-(Spark751).mkv
http://www.filecondo.com/dl.php?f=Oa184c1O3HRw

Happiness.2021.S01E02.1080p.WEB-DL.AAC.x264-(Spark751).mkv
http://www.filecondo.com/dl.php?f=460daa1O3HR4

Happiness.2021.S01E01.1080p.WEB-DL.AAC.x264-(Spark751).mkv
http://www.filecondo.com/dl.php?f=6f009a1O3HPJ