+ ตอบกลับกระทู้
สรุปผลการค้นหา 1 ถึง 2 จากทั้งหมด 2
  1. #1
    Administrators รูปส่วนตัว Duckload.us
    สมัครเมื่อ
    Dec 2010
    โพสต์
    136,553
    Thanks
    7
    Thanked 141,368 Times in 61,965 Posts

    Angry [ฝรั่ง]-[x-TaR] Obi-Wan Kenobi S01 EP1-6 (Complete) (2022) HDR [พากย์ไทย+อังกฤษ] • [บรรยายไทย+อังกฤษ]-4K Blu-ray.H.265.2160p. [Modified]-[พากย์ไทย บรรยายไทย]



    General
    Unique ID : 331361873159152786619773460695273026053 (0xF949F9B374FAA964A3C5E1DCBB85B205)
    Format : Matroska
    Format version : Version 4
    File size : 6.00 GiB
    Duration : 52 min 28 s
    Overall bit rate : 16.4 Mb/s
    Movie name : Obi-Wan Kenobi S01E01 - Part I (May 27, 2022) HDR
    Encoded date : UTC 2022-06-02 02:47:26
    Writing application : mkvmerge v60.0.0 ('Are We Copies?') 64-bit
    Writing library : libebml v1.4.2 + libmatroska v1.6.4
    Cover : Yes
    Attachments : cover.jpg

    Video
    ID : 1
    Format : HEVC
    Format/Info : High Efficiency Video Coding
    Format profile : Main [email protected]@High
    HDR format : SMPTE ST 2086, HDR10 compatible
    Codec ID : V_MPEGH/ISO/HEVC
    Duration : 52 min 28 s
    Bit rate : 15.4 Mb/s
    Width : 3 840 pixels
    Height : 2 160 pixels
    Display aspect ratio : 16:9
    Frame rate mode : Constant
    Frame rate : 24.000 FPS
    Color space : YUV
    Chroma subsampling : 4:2:0
    Bit depth : 10 bits
    Bits/(Pixel*Frame) : 0.077
    Stream size : 5.65 GiB (94%)
    Title : Obi-Wan Kenobi S01E01
    Default : Yes
    Forced : No
    Color range : Limited
    Color primaries : BT.2020
    Transfer characteristics : PQ
    Matrix coefficients : BT.2020 non-constant
    Mastering display color primar : BT.2020
    Mastering display luminance : min: 0.0000 cd/m2, max: 1000 cd/m2

    Audio #1
    ID : 2
    Format : E-AC-3
    Format/Info : Enhanced AC-3
    Commercial name : Dolby Digital Plus
    Codec ID : A_EAC3
    Duration : 52 min 28 s
    Bit rate mode : Constant
    Bit rate : 192 kb/s
    Channel(s) : 6 channels
    Channel layout : L R C LFE Ls Rs
    Sampling rate : 48.0 kHz
    Frame rate : 31.250 FPS (1536 SPF)
    Compression mode : Lossy
    Stream size : 72.1 MiB (1%)
    Title : ไทย E-AC-3 (5.1)
    Language : Thai
    Service kind : Complete Main
    Default : Yes
    Forced : Yes

    Audio #2
    ID : 3
    Format : E-AC-3 JOC
    Format/Info : Enhanced AC-3 with Joint Object Coding
    Commercial name : Dolby Digital Plus with Dolby Atmos
    Codec ID : A_EAC3
    Duration : 52 min 28 s
    Bit rate mode : Constant
    Bit rate : 768 kb/s
    Channel(s) : 6 channels
    Channel layout : L R C LFE Ls Rs
    Sampling rate : 48.0 kHz
    Frame rate : 31.250 FPS (1536 SPF)
    Compression mode : Lossy
    Stream size : 288 MiB (5%)
    Title : English E-AC-3 (5.1)
    Language : English
    Service kind : Complete Main
    Default : No
    Forced : No
    Complexity index : 16
    Number of dynamic objects : 15
    Bed channel count : 1 channel
    Bed channel configuration : LFE

    Text #1
    ID : 4
    Format : UTF-8
    Codec ID : S_TEXT/UTF8
    Codec ID/Info : UTF-8 Plain Text
    Duration : 52 min 18 s
    Bit rate : 84 b/s
    Count of elements : 503
    Stream size : 32.4 KiB (0%)
    Title : ไทย SRT
    Language : Thai
    Default : No
    Forced : No

    Text #2
    ID : 5
    Format : UTF-8
    Codec ID : S_TEXT/UTF8
    Codec ID/Info : UTF-8 Plain Text
    Duration : 48 min 23 s
    Bit rate : 45 b/s
    Count of elements : 619
    Stream size : 16.0 KiB (0%)
    Title : English (SDH) SRT
    Language : English
    Default : No
    Forced : No

    Text #3
    ID : 6
    Format : UTF-8
    Codec ID : S_TEXT/UTF8
    Codec ID/Info : UTF-8 Plain Text
    Duration : 52 min 18 s
    Bit rate : 34 b/s
    Count of elements : 460
    Stream size : 13.1 KiB (0%)
    Title : 日 本 語 SRT
    Language : Japanese
    Default : No
    Forced : No

    Text #4
    ID : 7
    Format : UTF-8
    Codec ID : S_TEXT/UTF8
    Codec ID/Info : UTF-8 Plain Text
    Duration : 52 min 18 s
    Bit rate : 38 b/s
    Count of elements : 505
    Stream size : 14.8 KiB (0%)
    Title : 한 국 어 SRT
    Language : Korean
    Default : No
    Forced : No



    Obi-Wan Kenobi S01E01.mkv - 6.0 GB
    Obi-Wan Kenobi S01E02.mkv - 4.3 GB
    Obi-Wan Kenobi S01E03.mkv - 5.1 GB
    Obi-Wan Kenobi S01E04.mkv - 4.0 GB
    Obi-Wan Kenobi S01E05.mkv - 4.6 GB
    Obi-Wan Kenobi S01E06.mkv - 5.5 GB

  2. The Following User Says Thank You to Duckload.us For This Useful Post:

    Wesker_TOT (06-26-2022)

  3. #2
    Senior Member
    สมัครเมื่อ
    Dec 2013
    โพสต์
    3,713
    Thanks
    5,620
    Thanked 0 Times in 0 Posts
    ขอบคุณครับ...

+ ตอบกลับกระทู้

ข้อมูลกระทู้

Users Browsing this Thread

ในขณะนี้มี 1 ท่านดูกระทู้อยู่. (0 สมาชิกและ 1 ผู้เยี่ยมชม)

     

กฎการโพสต์ข้อความ

  • ท่าน ไม่สามารถ ตั้งกระทู้ใหม่ได้
  • ท่าน ไม่สามารถ ตอบกระทู้ได้
  • ท่าน ไม่สามารถ แนบไฟล์ได้
  • ท่าน ไม่สามารถ แก้ไขข้อความโพสต์ได้
  • BB code สถานะ เปิด
  • Smilies สถานะ เปิด
  • [IMG] สถานะ เปิด
  • HTML สถานะ ปิด