+ ตอบกลับกระทู้
สรุปผลการค้นหา 1 ถึง 7 จากทั้งหมด 7
  1. #1
    Administrators รูปส่วนตัว Duckload.us
    สมัครเมื่อ
    Dec 2010
    โพสต์
    137,492
    Thanks
    7
    Thanked 143,437 Times in 62,400 Posts

    Thumbs up [ฝรั่ง]-[HBO] Westworld (2022) เวสต์เวิลด์ Season 4 EP.1-7 [เสียง:อังกฤษ AC-3 5.1][บรรยาย: ไทย PGS/อังกฤษ SRT]-WEB-DL.H.264.1080p. [From HD-TV]-[Soundtrack บรรยายไทย]





    เรื่องย่อ
    การกลับมาอีกครั้งของซีรี่ย์ไซไฟ โลกแห่งการผจญภัยในธีมปาร์คแฟนตาซี สุดหรรษา คราวนี้ที่จะนำผู้ชมออกไปจากความวุ่นวายภายในอุทยาน และเข้าไปใน “โลกแห่งความจริง” ซึ่งจะเล่าถึงเส้นเรื่องในความสัมพันธ์ระหว่าง Android และมนุษย์ และความซับซ้อนแห่งโลกอนาคต


    Video
    ID : 1
    Format : AVC
    Format/Info : Advanced Video Codec
    Format profile : [email protected]
    Format settings, CABAC : Yes
    Format settings, RefFrames : 4 frames
    Codec ID : V_MPEG4/ISO/AVC
    Duration : 54 min 18 s
    Bit rate mode : Variable
    Bit rate : 8 250 kb/s
    Maximum bit rate : 12.4 Mb/s
    Width : 1 920 pixels
    Height : 1 080 pixels
    Display aspect ratio : 16:9
    Frame rate mode : Constant
    Frame rate : 23.976 (24000/1001) FPS
    Color space : YUV
    Chroma subsampling : 4:2:0
    Bit depth : 8 bits
    Scan type : Progressive
    Bits/(Pixel*Frame) : 0.166
    Stream size : 3.13 GiB (95%)
    Writing library : x264 core 157 r2965 861cec4
    Encoding settings : cabac=1 / ref=4 / deblock=1:0:0 / analyse=0x3:0x113 / me=hex / subme=7 / psy=1 / psy_rd=1.00:0.00 / mixed_ref=1 / me_range=16 / chroma_me=1 / trellis=1 / 8x8dct=1 / cqm=0 / deadzone=21,11 / fast_pskip=1 / chroma_qp_offset=-2 / threads=34 / lookahead_threads=5 / sliced_threads=0 / nr=0 / decimate=1 / interlaced=0 / bluray_compat=0 / constrained_intra=0 / bframes=3 / b_pyramid=2 / b_adapt=1 / b_bias=0 / direct=1 / weightb=1 / open_gop=0 / weightp=2 / keyint=96 / keyint_min=96 / scenecut=40 / intra_refresh=0 / rc_lookahead=40 / rc=2pass / mbtree=1 / bitrate=8250 / ratetol=1.0 / qcomp=0.60 / qpmin=0 / qpmax=69 / qpstep=4 / cplxblur=20.0 / qblur=0.5 / vbv_maxrate=12375 / vbv_bufsize=6187 / nal_hrd=vbr / filler=0 / ip_ratio=1.40 / aq=1:1.00
    Default : Yes
    Forced : No
    Color range : Limited
    Color primaries : BT.709
    Transfer characteristics : BT.709
    Matrix coefficients : BT.709

    Audio
    ID : 2
    Format : AC-3
    Format/Info : Audio Coding 3
    Format settings, Endianness : Big
    Codec ID : A_AC3
    Duration : 54 min 18 s
    Bit rate mode : Constant
    Bit rate : 384 kb/s
    Channel(s) : 6 channels
    Channel positions : Front: L C R, Side: L R, LFE
    Sampling rate : 48.0 kHz
    Frame rate : 31.250 FPS (1536 SPF)
    Bit depth : 16 bits
    Compression mode : Lossy
    Stream size : 149 MiB (4%)
    Title : [English-AC-3]
    Language : English
    Service kind : Complete Main
    Default : Yes
    Forced : No

    Text #1
    ID : 3
    Format : PGS
    Muxing mode : zlib
    Codec ID : S_HDMV/PGS
    Codec ID/Info : Picture based subtitle format used on BDs/HD-DVDs
    Duration : 52 min 44 s
    Bit rate : 39.4 kb/s
    Count of elements : 1000
    Stream size : 14.9 MiB (0%)
    Title : [Thai HBO PGS]
    Language : Thai
    Default : Yes
    Forced : No

    Text #2
    ID : 4
    Format : UTF-8
    Codec ID : S_TEXT/UTF8
    Codec ID/Info : UTF-8 Plain Text
    Duration : 51 min 49 s
    Bit rate : 40 b/s
    Count of elements : 495
    Stream size : 15.3 KiB (0%)
    Title : English
    Language : English
    Default : No
    Forced : No

    Text #3
    ID : 5
    Format : UTF-8
    Codec ID : S_TEXT/UTF8
    Codec ID/Info : UTF-8 Plain Text
    Duration : 53 min 57 s
    Bit rate : 52 b/s
    Count of elements : 682
    Stream size : 20.6 KiB (0%)
    Title : English [SDH]
    Language : English
    Default : No
    Forced : No

    Menu
    00:00:00.000 : en:Chapter 1
    00:09:30.111 : en:Intro
    00:11:08.794 : en:Chapter 2
    00:53:08.000 : en:Credits




    Download:filecondo

    1 http://www.filecondo.com/dl.php?f=U108391O5NpQ
    2 http://www.filecondo.com/dl.php?f=l3b7411O8gMA
    3 http://www.filecondo.com/dl.php?f=K207021OaSwx
    4 http://www.filecondo.com/dl.php?f=y88e9d1OdEnj
    5 http://www.filecondo.com/dl.php?f=k267c71OggIV
    6 http://www.filecondo.com/dl.php?f=53ec131Oj9ox
    7 http://www.filecondo.com/dl.php?f=a2070d1OkZFo

    Download:cornfile
    1 https://www.cornfile.com/m1piuldrihfx
    2 https://www.cornfile.com/ufpsfe2ga8i3
    3 https://www.cornfile.com/dm5h6da9t0e5
    4 https://www.cornfile.com/z9k81urmf6gx
    5 https://www.cornfile.com/qf7vwd6i6vpm
    6 https://www.cornfile.com/t7zb0r0a0nfz
    7 https://www.cornfile.com/u0o102233f9p

  2. The Following 4 Users Say Thank You to Duckload.us For This Useful Post:

    anantaananta (08-10-2022), dulobobo (07-04-2022), jackjangri (06-28-2022), Wesker_TOT (06-28-2022)

  3. #2
    I'm donate !
    สมัครเมื่อ
    Jun 2011
    โพสต์
    471
    Thanks
    624
    Thanked 40 Times in 29 Posts
    thankyou...

  4. #3
    Senior Member
    สมัครเมื่อ
    Dec 2013
    โพสต์
    3,801
    Thanks
    5,706
    Thanked 0 Times in 0 Posts
    ขอบคุณครับ...

  5. #4
    Administrators รูปส่วนตัว Duckload.us
    สมัครเมื่อ
    Dec 2010
    โพสต์
    137,492
    Thanks
    7
    Thanked 143,437 Times in 62,400 Posts
    Westworld (2022) เวสต์เวิลด์ Season 4 EP.1-2

  6. #5
    Junior Member
    สมัครเมื่อ
    Nov 2012
    โพสต์
    4
    Thanks
    2,348
    Thanked 0 Times in 0 Posts
    รบกวนขอ Westworld เวสต์เวิลด์ Season1 ด้วยครับ เสึยง 5.1 sub thai

  7. #6
    Junior Member
    สมัครเมื่อ
    May 2012
    โพสต์
    14
    Thanks
    0
    Thanked 0 Times in 0 Posts
    part 5 cornfile เป็น thor love and thunder ครับ

    ไฟล์ผิดครับ

  8. #7
    Junior Member
    สมัครเมื่อ
    May 2012
    โพสต์
    14
    Thanks
    0
    Thanked 0 Times in 0 Posts
    part 5 cornfile เป็น thor love and thunder ครับ

    ไฟล์ผิดครับ

+ ตอบกลับกระทู้

ข้อมูลกระทู้

Users Browsing this Thread

ในขณะนี้มี 1 ท่านดูกระทู้อยู่. (0 สมาชิกและ 1 ผู้เยี่ยมชม)

     

กฎการโพสต์ข้อความ

  • ท่าน ไม่สามารถ ตั้งกระทู้ใหม่ได้
  • ท่าน ไม่สามารถ ตอบกระทู้ได้
  • ท่าน ไม่สามารถ แนบไฟล์ได้
  • ท่าน ไม่สามารถ แก้ไขข้อความโพสต์ได้
  • BB code สถานะ เปิด
  • Smilies สถานะ เปิด
  • [IMG] สถานะ เปิด
  • HTML สถานะ ปิด