+ ตอบกลับกระทู้
สรุปผลการค้นหา 1 ถึง 3 จากทั้งหมด 3
  1. #1
    Administrators รูปส่วนตัว Duckload.us
    สมัครเมื่อ
    Dec 2010
    โพสต์
    137,487
    Thanks
    7
    Thanked 143,436 Times in 62,400 Posts

    Thumbs up [ฝรั่ง] King Richard (2021) คิง ริชาร์ด (Sound:Eng/Thai Master)[SUB:อังกฤษ/ไทย]




    สร้างอิงจากเรื่องจริงที่จะสร้างแรงบันดาลใจให้ทั้งโ ลก เรื่องราวการเดินทางของ ริชาร์ด วิลเลียมส์ (วิลล์ สมิธ) คุณพ่อผู้ไม่ย่อท้อต่อการเลี้ยงดูสองนักกีฬาผู้มีพรส วรรค์พิเศษ จนได้กลายเป็นผู้เปลี่ยนแปลงวงการกีฬาเทนนิสตลอดกาล ทั้งคู่ได้แรงผลักดันจากพ่อผู้เห็นภาพอนาคตของพวกเขา อย่างชัดเจน และเลือกใช้วิธีที่ต่างจากแบบแผนทางสังคม ริชาร์ด วางแผนว่าจะพา วีนัส (ซานิย์ยา ซิดนีย์) และ เซเรน่า วิลเลียมส์ (เดมี่ ซินเกลตัน) ออกจากคอมป์ตัน รัฐแคลิฟอร์เนียสู่การเป็นผู้มีชื่อเสียงแห่งตำนานระ ดับโลก ภาพยนตร์เต็มไปด้วยความซาบซึ้งที่ถ่ายทอดให้เห็นพลัง ของครอบครัว ความพยายาม และความเชื่อมั่นที่นำไปสู่ความสำเร็จในเรื่องที่ยาก จะเป็นไปได้ และมีอิทธิพลต่อทั้งโลก

    Format : Matroska
    Format version : Version 4
    File size : 4.82 GiB
    Duration : 2 h 24 min
    Overall bit rate : 4 769 kb/s
    Movie name : King.Richard.2021.1080p.WEBRip.x264_©GOLD CUP™_WWW.TT-TORRENT.COM
    Encoded date : UTC 2022-06-27 19:54:18
    Writing application : mkvmerge v68.0.0 ('The Curtain') 64-bit
    Writing library : libebml v1.4.2 + libmatroska v1.6.4
    Cover : Yes
    Attachments : cover

    Video
    ID : 1
    Format : AVC
    Format/Info : Advanced Video Codec
    Format profile : [email protected]
    Format settings : CABAC / 1 Ref Frames
    Format settings, CABAC : Yes
    Format settings, Reference frames : 1 frame
    Format settings, GOP : M=1, N=25
    Codec ID : V_MPEG4/ISO/AVC
    Duration : 2 h 24 min
    Bit rate mode : Constant
    Bit rate : 3 353 kb/s
    Width : 1 920 pixels
    Height : 804 pixels
    Display aspect ratio : 2.40:1
    Frame rate mode : Constant
    Frame rate : 23.976 (24000/1001) FPS
    Color space : YUV
    Chroma subsampling : 4:2:0
    Bit depth : 8 bits
    Scan type : Progressive
    Bits/(Pixel*Frame) : 0.091
    Stream size : 3.39 GiB (70%)
    Title : King.Richard.2021.1080p.WEBRip.x264_©GOLD CUP™
    Language : English
    Default : Yes
    Forced : No

    Audio #1
    ID : 2
    Format : AAC LC
    Format/Info : Advanced Audio Codec Low Complexity
    Codec ID : A_AAC-2
    Duration : 2 h 24 min
    Bit rate : 224 kb/s
    Channel(s) : 6 channels
    Channel layout : C L R Ls Rs LFE
    Sampling rate : 48.0 kHz
    Frame rate : 46.875 FPS (1024 SPF)
    Compression mode : Lossy
    Stream size : 232 MiB (5%)
    Title : En.AAC_224 kbs.6 channels
    Language : English
    Default : Yes
    Forced : No

    Audio #2
    ID : 3
    Format : AC-3
    Format/Info : Audio Coding 3
    Commercial name : Dolby Digital
    Codec ID : A_AC3
    Duration : 2 h 24 min
    Bit rate mode : Constant
    Bit rate : 192 kb/s
    Channel(s) : 2 channels
    Channel layout : L R
    Sampling rate : 48.0 kHz
    Frame rate : 31.250 FPS (1536 SPF)
    Compression mode : Lossy
    Stream size : 199 MiB (4%)
    Title : Th.2.0.AC3.192k
    Language : Thai
    Service kind : Complete Main
    Default : Yes
    Forced : No

    Audio #3
    ID : 4
    Format : DTS
    Format/Info : Digital Theater Systems
    Codec ID : A_DTS
    Duration : 2 h 24 min
    Bit rate mode : Constant
    Bit rate : 911 kb/s
    Channel(s) : 6 channels
    Channel layout : C L R Ls Rs LFE
    Sampling rate : 11.025 kHz
    Frame rate : 10.767 FPS (1024 SPF)
    Bit depth : 16 bits
    Compression mode : Lossy
    Stream size : 943 MiB (19%)
    Title : En.DTS.5.1_Sample Rate 11025
    Language : English
    Default : Yes
    Forced : No

    Text #1
    ID : 5
    Format : PGS
    Muxing mode : zlib
    Codec ID : S_HDMV/PGS
    Codec ID/Info : Picture based subtitle format used on BDs/HD-DVDs
    Duration : 2 h 19 min
    Bit rate : 50.9 kb/s
    Count of elements : 4828
    Stream size : 50.7 MiB (1%)
    Title : Th.3.100.90.White
    Language : Thai
    Default : No
    Forced : No

    Text #2
    ID : 6
    Format : PGS
    Muxing mode : zlib
    Codec ID : S_HDMV/PGS
    Codec ID/Info : Picture based subtitle format used on BDs/HD-DVDs
    Duration : 2 h 19 min
    Bit rate : 56.1 kb/s
    Count of elements : 5432
    Stream size : 55.9 MiB (1%)
    Title : EN.110.3.83.Yellow
    Language : English
    Default : No
    Forced : No

    Text #3
    ID : 7
    Format : PGS
    Muxing mode : zlib
    Codec ID : S_HDMV/PGS
    Codec ID/Info : Picture based subtitle format used on BDs/HD-DVDs
    Duration : 2 h 19 min
    Bit rate : 64.8 kb/s
    Count of elements : 5954
    Stream size : 64.7 MiB (1%)
    Title : EN.SDH.110.3.83.Oreng
    Language : English
    Default : No
    Forced : No






    Download:filecondo
    King.Richard.2021.1080p.WEBRip.x264_GOLD_CUP.mkv
    http://www.filecondo.com/dl.php?f=v9a4fa1O6E5b

    ************************************
    King.Richard.2021.1080p.WEBRip.x264_GOLD_CUP.part1 .rar
    http://www.filecondo.com/dl.php?f=r151e61O69MP
    King.Richard.2021.1080p.WEBRip.x264_GOLD_CUP.part2 .rar
    http://www.filecondo.com/dl.php?f=F1c4751O69NV
    King.Richard.2021.1080p.WEBRip.x264_GOLD_CUP.part3 .rar
    http://www.filecondo.com/dl.php?f=Zfced51O69Js


    Download:cornfile
    https://www.cornfile.com/u8ashnlppv6m

  2. The Following User Says Thank You to Duckload.us For This Useful Post:

    sawara (06-29-2022)

  3. #2
    Senior Member
    สมัครเมื่อ
    Jul 2013
    โพสต์
    3,357
    Thanks
    0
    Thanked 0 Times in 0 Posts
    ขอบคุณครับ

  4. #3
    Senior Member
    สมัครเมื่อ
    Dec 2013
    โพสต์
    651
    Thanks
    599
    Thanked 0 Times in 0 Posts
    ขอบคุณครับบ

+ ตอบกลับกระทู้

ข้อมูลกระทู้

Users Browsing this Thread

ในขณะนี้มี 1 ท่านดูกระทู้อยู่. (0 สมาชิกและ 1 ผู้เยี่ยมชม)

     

กฎการโพสต์ข้อความ

  • ท่าน ไม่สามารถ ตั้งกระทู้ใหม่ได้
  • ท่าน ไม่สามารถ ตอบกระทู้ได้
  • ท่าน ไม่สามารถ แนบไฟล์ได้
  • ท่าน ไม่สามารถ แก้ไขข้อความโพสต์ได้
  • BB code สถานะ เปิด
  • Smilies สถานะ เปิด
  • [IMG] สถานะ เปิด
  • HTML สถานะ ปิด