+ ตอบกลับกระทู้
สรุปผลการค้นหา 1 ถึง 3 จากทั้งหมด 3
  1. #1
    Administrators รูปส่วนตัว Duckload.us
    สมัครเมื่อ
    Dec 2010
    โพสต์
    137,508
    Thanks
    7
    Thanked 143,447 Times in 62,405 Posts

    Thumbs up [ฝรั่ง]-Thor: Love and Thunder ธอร์: ด้วยรักและอัสนี-Blu-ray.Other.1080p. [Master]-[Soundtrack ไม่มีบรรยายไทย]



    เรื่องย่อ
    ธอร์ (คริส เฮมส์เวิร์ธ) จะได้ไปผจญภัยในแบบที่ไม่เหมือนครั้งไหนที่เขาเคยเจอ มาก่อน ภารกิจในการค้นหาความสงบสุขภายใน แต่การเกษียณของเขาถูกรบกวนโดยนักฆ่าข้ามจักรวาลนามว ่า กอร์ นักเชือดเทพเจ้า (คริสเตียน เบล) ผู้แสวงหาการสูญพันธ์ของเทพเจ้าทั้งมวล เพื่อต่อสู้กับภัยคุกคามนี้ ธอร์ควานหาความช่วยเหลือจาก ราชาวัลคีรี่ (เทซซ่า ทอมป์สัน), คอร์ก (ไทก้า ไวตีติ) และแฟนเก่าของเขา เจน ฟอสเตอร์ (นาตาลี พอร์ตแมน) ผู้ที่ทำให้ธอร์ตกใจจนตาค้าง เมื่อเธอกำลังถือครองค้อนโยเนียร์ของเขา ในฐานะของ The Mighty Thor

    พวกเขาต้องร่วมมือกันผจญภัยข้ามจักรวาลไปเพื่อค้นหาค วามลับเบื้องหลังความแค้นของนักเชือดเทพเจ้าคนนี้ เพื่อหยุดยั้งเขาเอาไว้ก่อนที่มันจะสายจนเกินไป

    Format : Matroska
    Format version : Version 4
    File size : 8.56 GiB
    Duration : 1 h 58 min
    Overall bit rate : 10.3 Mb/s
    Encoded date : UTC 2022-07-20 11:18:59
    Writing application : mkvmerge v61.0.0 ('So') 64-bit
    Writing library : libebml v1.4.2 + libmatroska v1.6.4 / Lavf58.76.100

    Video
    ID : 1
    Format : AVC
    Format/Info : Advanced Video Codec
    Format profile : High [email protected]
    Format settings : CABAC / 4 Ref Frames
    Format settings, CABAC : Yes
    Format settings, Reference frames : 4 frames
    Codec ID : V_MPEG4/ISO/AVC
    Duration : 1 h 58 min
    Bit rate : 10.0 Mb/s
    Width : 1 912 pixels
    Height : 950 pixels
    Display aspect ratio : 2.013
    Frame rate mode : Constant
    Frame rate : 24.000 FPS
    Color space : YUV
    Chroma subsampling : 4:2:0
    Bit depth : 10 bits
    Scan type : Progressive
    Bits/(Pixel*Frame) : 0.230
    Stream size : 8.30 GiB (97%)
    Writing library : x264 core 164 r3065 ae03d92
    Encoding settings : cabac=1 / ref=4 / deblock=1:-2:-2 / analyse=0x3:0x133 / me=umh / subme=10 / psy=1 / psy_rd=1.00:0.25 / mixed_ref=1 / me_range=24 / chroma_me=1 / trellis=2 / 8x8dct=1 / cqm=0 / deadzone=6,6 / fast_pskip=1 / chroma_qp_offset=-4 / threads=12 / lookahead_threads=2 / sliced_threads=0 / nr=0 / decimate=0 / interlaced=0 / bluray_compat=0 / constrained_intra=0 / bframes=8 / b_pyramid=2 / b_adapt=2 / b_bias=0 / direct=3 / weightb=1 / open_gop=0 / weightp=2 / keyint=240 / keyint_min=24 / scenecut=40 / intra_refresh=0 / rc_lookahead=60 / rc=crf / mbtree=1 / crf=18.0 / qcomp=0.80 / qpmin=0 / qpmax=81 / qpstep=4 / vbv_maxrate=150000 / vbv_bufsize=187500 / crf_max=0.0 / nal_hrd=none / filler=0 / ip_ratio=1.10 / aq=1:0.50
    Default : Yes
    Forced : No
    Color range : Limited
    Color primaries : BT.709
    Transfer characteristics : BT.709
    Matrix coefficients : BT.709

    Audio
    ID : 2
    Format : AC-3
    Format/Info : Audio Coding 3
    Commercial name : Dolby Digital
    Codec ID : A_AC3
    Duration : 1 h 58 min
    Bit rate mode : Constant
    Bit rate : 320 kb/s
    Channel(s) : 2 channels
    Channel layout : L R
    Sampling rate : 48.0 kHz
    Frame rate : 31.250 FPS (1536 SPF)
    Compression mode : Lossy
    Stream size : 272 MiB (3%)
    Title : english
    Language : English
    Service kind : Complete Main
    Default : Yes
    Forced : No



    Download:filecondo
    http://www.filecondo.com/dl.php?f=0151f21OggDU
    Download:cornfile
    https://www.cornfile.com/qf7vwd6i6vpm

  2. The Following User Says Thank You to Duckload.us For This Useful Post:

    Wesker_TOT (07-29-2022)

  3. #2
    Senior Member
    สมัครเมื่อ
    Dec 2013
    โพสต์
    3,801
    Thanks
    5,706
    Thanked 0 Times in 0 Posts
    ขอบคุณครับ...

    ไฟล์หนังเสียเหรอครับ...?
    แก้ไขครั้งล่าสุดโดย Wesker_TOT : 07-29-2022 เมื่อ 01:12 PM

  4. #3
    Senior Member
    สมัครเมื่อ
    May 2011
    โพสต์
    148
    Thanks
    44
    Thanked 0 Times in 0 Posts
    ผมก็เล่นไม่ได้ นึกว่าเป็นคนเดียว

+ ตอบกลับกระทู้

ข้อมูลกระทู้

Users Browsing this Thread

ในขณะนี้มี 1 ท่านดูกระทู้อยู่. (0 สมาชิกและ 1 ผู้เยี่ยมชม)

     

กฎการโพสต์ข้อความ

  • ท่าน ไม่สามารถ ตั้งกระทู้ใหม่ได้
  • ท่าน ไม่สามารถ ตอบกระทู้ได้
  • ท่าน ไม่สามารถ แนบไฟล์ได้
  • ท่าน ไม่สามารถ แก้ไขข้อความโพสต์ได้
  • BB code สถานะ เปิด
  • Smilies สถานะ เปิด
  • [IMG] สถานะ เปิด
  • HTML สถานะ ปิด