+ ตอบกลับกระทู้
สรุปผลการค้นหา 1 ถึง 3 จากทั้งหมด 3
  1. #1
    Administrators รูปส่วนตัว Duckload.us
    สมัครเมื่อ
    Dec 2010
    โพสต์
    137,508
    Thanks
    7
    Thanked 143,447 Times in 62,405 Posts

    Lightbulb [เกาหลี]-[NF] A Business Proposal (2022) นัดบอดวุ่น ลุ้นรักท่านประธาน [Complete 12 Episodes]-WEB-DL.H.264.1080p. [Master]-[พากย์ไทย/Korean บรรยายไทย]



    ฮารียอมสวมรอยไปนัดบอดแทนเพื่อนเพื่อให้หนุ่มคนนั้นป ฏิเสธ แต่แผนกลับไม่เป็นไปตามคาดเมื่อคู่นัดบอดคือประธานบร ิษัทของเธอเอง แต่แทนที่จะหนี เขากลับขอเธอแต่งงานด้วย

    Format/Info : Advanced Video Codec
    Format profile : [email protected]
    Format settings : CABAC / 3 Ref Frames
    Format settings, CABAC : Yes
    Format settings, Reference frames : 3 frames
    Codec ID : V_MPEG4/ISO/AVC
    Duration : 1 h 0 min
    Bit rate mode : Variable
    Bit rate : 5 800 kb/s
    Maximum bit rate : 8 700 kb/s
    Width : 1 920 pixels
    Height : 1 080 pixels
    Display aspect ratio : 16:9
    Frame rate mode : Constant
    Frame rate : 23.976 (24000/1001) FPS
    Color space : YUV
    Chroma subsampling : 4:2:0
    Bit depth : 8 bits
    Scan type : Progressive
    Bits/(Pixel*Frame) : 0.117
    Stream size : 2.45 GiB (96%)
    Writing library : x264 core 148 r2727 7d026e8
    Encoding settings : cabac=1 / ref=3 / deblock=1:0:0 / analyse=0x1:0x111 / me=umh / subme=10 / psy=1 / psy_rd=1.00:0.00 / mixed_ref=1 / me_range=24 / chroma_me=1 / trellis=2 / 8x8dct=0 / cqm=0 / deadzone=21,11 / fast_pskip=1 / chroma_qp_offset=-2 / threads=8 / lookahead_threads=1 / sliced_threads=0 / nr=0 / decimate=1 / interlaced=0 / bluray_compat=0 / stitchable=1 / constrained_intra=0 / bframes=2 / b_pyramid=0 / b_adapt=2 / b_bias=0 / direct=3 / weightb=1 / open_gop=0 / weightp=2 / keyint=250 / keyint_min=23 / scenecut=0 / intra_refresh=0 / rc_lookahead=48 / rc=2pass / mbtree=1 / bitrate=5800 / ratetol=1.0 / qcomp=0.50 / qpmin=6 / qpmax=51 / qpstep=4 / cplxblur=20.0 / qblur=0.5 / vbv_maxrate=8700 / vbv_bufsize=11600 / nal_hrd=vbr / filler=0 / ip_ratio=1.40 / aq=1:1.00
    Default : Yes
    Forced : No

    Audio #1
    ID : 2
    Format : E-AC-3
    Format/Info : Enhanced AC-3
    Commercial name : Dolby Digital Plus
    Codec ID : A_EAC3
    Duration : 1 h 0 min
    Bit rate mode : Constant
    Bit rate : 128 kb/s
    Channel(s) : 2 channels
    Channel layout : L R
    Sampling rate : 48.0 kHz
    Frame rate : 31.250 FPS (1536 SPF)
    Compression mode : Lossy
    Stream size : 55.5 MiB (2%)
    Title : Korean
    Language : Korean
    Service kind : Complete Main
    Default : No
    Forced : No

    Audio #2
    ID : 3
    Format : AAC LC SBR
    Format/Info : Advanced Audio Codec Low Complexity with Spectral Band Replication
    Commercial name : HE-AAC
    Format settings : Explicit
    Codec ID : A_AAC-2
    Duration : 1 h 1 min
    Bit rate : 128 kb/s
    Channel(s) : 2 channels
    Channel layout : L R
    Sampling rate : 48.0 kHz
    Frame rate : 23.438 FPS (2048 SPF)
    Compression mode : Lossy
    Stream size : 56.2 MiB (2%)
    Language : Thai
    Default : Yes
    Forced : No

    Text #1
    ID : 4
    Format : UTF-8
    Codec ID : S_TEXT/UTF8
    Codec ID/Info : UTF-8 Plain Text
    Duration : 1 h 0 min
    Bit rate : 124 b/s
    Frame rate : 0.265 FPS
    Count of elements : 962
    Stream size : 54.9 KiB (0%)
    Title : Arabic
    Language : Arabic
    Default : No
    Forced : No

    Text #2
    ID : 5
    Format : UTF-8
    Codec ID : S_TEXT/UTF8
    Codec ID/Info : UTF-8 Plain Text
    Duration : 1 h 0 min
    Bit rate : 75 b/s
    Frame rate : 0.269 FPS
    Count of elements : 976
    Stream size : 33.5 KiB (0%)
    Title : Chinese Simplified
    Language : Chinese
    Default : No
    Forced : No

    Text #3
    ID : 6
    Format : UTF-8
    Codec ID : S_TEXT/UTF8
    Codec ID/Info : UTF-8 Plain Text
    Duration : 1 h 0 min
    Bit rate : 76 b/s
    Frame rate : 0.269 FPS
    Count of elements : 976
    Stream size : 33.9 KiB (0%)
    Title : Chinese Traditional
    Language : Chinese
    Default : No
    Forced : No

    Text #4
    ID : 7
    Format : UTF-8
    Codec ID : S_TEXT/UTF8
    Codec ID/Info : UTF-8 Plain Text
    Duration : 59 min 46 s
    Bit rate : 74 b/s
    Frame rate : 0.265 FPS
    Count of elements : 950
    Stream size : 32.5 KiB (0%)
    Title : English
    Language : English
    Default : No
    Forced : No

    Text #5
    ID : 8
    Format : UTF-8
    Codec ID : S_TEXT/UTF8
    Codec ID/Info : UTF-8 Plain Text
    Duration : 1 h 0 min
    Bit rate : 73 b/s
    Frame rate : 0.265 FPS
    Count of elements : 962
    Stream size : 32.4 KiB (0%)
    Title : Indonesian
    Language : Indonesian
    Default : No
    Forced : No

    Text #6
    ID : 9
    Format : UTF-8
    Codec ID : S_TEXT/UTF8
    Codec ID/Info : UTF-8 Plain Text
    Duration : 1 h 0 min
    Bit rate : 72 b/s
    Frame rate : 0.270 FPS
    Count of elements : 978
    Stream size : 31.9 KiB (0%)
    Title : Japanese
    Language : Japanese
    Default : No
    Forced : No

    Text #7
    ID : 10
    Format : UTF-8
    Codec ID : S_TEXT/UTF8
    Codec ID/Info : UTF-8 Plain Text
    Duration : 1 h 0 min
    Bit rate : 115 b/s
    Frame rate : 0.357 FPS
    Count of elements : 1292
    Stream size : 51.0 KiB (0%)
    Title : Korean [CC]
    Language : Korean
    Default : No
    Forced : No

    Text #8
    ID : 11
    Format : UTF-8
    Codec ID : S_TEXT/UTF8
    Codec ID/Info : UTF-8 Plain Text
    Duration : 1 h 0 min
    Bit rate : 0 b/s
    Frame rate : 0.002 FPS
    Count of elements : 9
    Stream size : 164 Bytes (0%)
    Title : Korean [Forced]
    Language : Korean
    Default : No
    Forced : Yes

    Text #9
    ID : 12
    Format : UTF-8
    Codec ID : S_TEXT/UTF8
    Codec ID/Info : UTF-8 Plain Text
    Duration : 1 h 0 min
    Bit rate : 63 b/s
    Frame rate : 0.265 FPS
    Count of elements : 962
    Stream size : 28.2 KiB (0%)
    Title : Malay
    Language : Malay
    Default : No
    Forced : No

    Text #10
    ID : 13
    Format : UTF-8
    Codec ID : S_TEXT/UTF8
    Codec ID/Info : UTF-8 Plain Text
    Duration : 1 h 0 min
    Bit rate : 199 b/s
    Frame rate : 0.266 FPS
    Count of elements : 963
    Stream size : 88.2 KiB (0%)
    Title : Thai
    Language : Thai
    Default : No
    Forced : No

    Text #11
    ID : 14
    Format : UTF-8
    Codec ID : S_TEXT/UTF8
    Codec ID/Info : UTF-8 Plain Text
    Duration : 1 h 0 min
    Bit rate : 104 b/s
    Frame rate : 0.266 FPS
    Count of elements : 962
    Stream size : 46.4 KiB (0%)
    Title : Vietnamese
    Language : Vietnamese
    Default : No
    Forced : No



    Business.Proposal.S01E12.1080p.NF.WEB-DL.DDP2.0.x264-MESSI.mkv
    http://www.filecondo.com/dl.php?f=1f10ff1Ojg5E

    Business.Proposal.S01E11.1080p.NF.WEB-DL.DDP2.0.x264-MESSI.mkv
    http://www.filecondo.com/dl.php?f=x5eba81Ojg4E

    Business.Proposal.S01E10.1080p.NF.WEB-DL.DDP2.0.x264-MESSI.mkv
    http://www.filecondo.com/dl.php?f=bb12c51Ojg1v

    Business.Proposal.S01E09.1080p.NF.WEB-DL.DDP2.0.x264-MESSI.mkv
    http://www.filecondo.com/dl.php?f=G3820c1OjfB1

    Business.Proposal.S01E08.1080p.NF.WEB-DL.DDP2.0.x264-MESSI.mkv
    http://www.filecondo.com/dl.php?f=ne69d81Ojfno

    Business.Proposal.S01E07.1080p.NF.WEB-DL.DDP2.0.x264-MESSI.mkv
    http://www.filecondo.com/dl.php?f=V1ca981Ojfex

    Business.Proposal.S01E06.1080p.NF.WEB-DL.DDP2.0.x264-MESSI.mkv
    http://www.filecondo.com/dl.php?f=Y4b8cd1Ojf7M

    Business.Proposal.S01E05.1080p.NF.WEB-DL.DDP2.0.x264-MESSI.mkv
    http://www.filecondo.com/dl.php?f=oda1131Ojf1R

    Business.Proposal.S01E04.1080p.NF.WEB-DL.DDP2.0.x264-MESSI.mkv
    http://www.filecondo.com/dl.php?f=Iedcbc1OjeUd

    Business.Proposal.S01E03.1080p.NF.WEB-DL.DDP2.0.x264-MESSI.mkv
    http://www.filecondo.com/dl.php?f=e186fe1OjeQs

    Business.Proposal.S01E02.1080p.NF.WEB-DL.DDP2.0.x264-MESSI.mkv
    http://www.filecondo.com/dl.php?f=e805011OjeP5

    Business.Proposal.S01E01.1080p.NF.WEB-DL.DDP2.0.x264-MESSI.mkv
    http://www.filecondo.com/dl.php?f=vfce441OjeGM

  2. #2
    Senior Member
    สมัครเมื่อ
    Jul 2012
    โพสต์
    8,036
    Thanks
    0
    Thanked 0 Times in 0 Posts
    ขอบคุณมากจ้า

  3. #3
    Member
    สมัครเมื่อ
    Jun 2018
    โพสต์
    82
    Thanks
    0
    Thanked 0 Times in 0 Posts
    ขอบคุณมากๆครับ

+ ตอบกลับกระทู้

ข้อมูลกระทู้

Users Browsing this Thread

ในขณะนี้มี 1 ท่านดูกระทู้อยู่. (0 สมาชิกและ 1 ผู้เยี่ยมชม)

     

กฎการโพสต์ข้อความ

  • ท่าน ไม่สามารถ ตั้งกระทู้ใหม่ได้
  • ท่าน ไม่สามารถ ตอบกระทู้ได้
  • ท่าน ไม่สามารถ แนบไฟล์ได้
  • ท่าน ไม่สามารถ แก้ไขข้อความโพสต์ได้
  • BB code สถานะ เปิด
  • Smilies สถานะ เปิด
  • [IMG] สถานะ เปิด
  • HTML สถานะ ปิด