+ ตอบกลับกระทู้
สรุปผลการค้นหา 1 ถึง 3 จากทั้งหมด 3
  1. #1
    Administrators รูปส่วนตัว Duckload.us
    สมัครเมื่อ
    Dec 2010
    โพสต์
    137,508
    Thanks
    7
    Thanked 143,447 Times in 62,405 Posts

    Thumbs up [ฝรั่ง]-[Netflix] The Sandman (2022) เดอะ.แซนด์แมน Season 1 [เสียง:อังกฤษ-ไทย AC-3 5.1][บรรยาย: ไทย PGS/SRT-อังกฤษ SRT Netflix]-WEB-DL.H.264.1080p. [From HD-TV]-[พากย์ไทย บรรยายไทย]



    หลังจากถูกจองจำมาเนิ่นนาน มอร์เฟียส ราชาแห่งความฝัน ก็ออกเดินทางข้ามโลกเพื่อตามหาสิ่งที่ถูกพรากไปและทว งคืนพลังอำนาจที่เคยมี

    Video
    ID : 1
    Format : AVC
    Format/Info : Advanced Video Codec
    Format profile : [email protected]
    Format settings, CABAC : Yes
    Format settings, RefFrames : 4 frames
    Codec ID : V_MPEG4/ISO/AVC
    Duration : 54 min 9 s
    Bit rate mode : Variable
    Bit rate : 2 079 kb/s
    Maximum bit rate : 20.0 Mb/s
    Width : 1 920 pixels
    Height : 1 080 pixels
    Display aspect ratio : 16:9
    Frame rate mode : Constant
    Frame rate : 23.976 (24000/1001) FPS
    Color space : YUV
    Chroma subsampling : 4:2:0
    Bit depth : 8 bits
    Scan type : Progressive
    Bits/(Pixel*Frame) : 0.042
    Stream size : 805 MiB (62%)
    Writing library : x264 core 148 r2727 7d026e8
    Encoding settings : cabac=1 / ref=4 / deblock=1:0:0 / analyse=0x3:0x111 / me=umh / subme=10 / psy=1 / psy_rd=1.00:0.00 / mixed_ref=1 / me_range=120 / chroma_me=1 / trellis=2 / 8x8dct=1 / cqm=0 / deadzone=21,11 / fast_pskip=1 / chroma_qp_offset=-2 / threads=8 / lookahead_threads=2 / sliced_threads=0 / nr=0 / decimate=1 / interlaced=0 / bluray_compat=0 / stitchable=1 / constrained_intra=0 / bframes=16 / b_pyramid=2 / b_adapt=2 / b_bias=0 / direct=3 / weightb=1 / open_gop=0 / weightp=2 / keyint=240 / keyint_min=121 / scenecut=0 / intra_refresh=0 / rc_lookahead=240 / rc=crf / mbtree=1 / crf=21.0 / qcomp=0.50 / qpmin=6 / qpmax=51 / qpstep=4 / vbv_maxrate=20000 / vbv_bufsize=25000 / crf_max=0.0 / nal_hrd=vbr / filler=0 / ip_ratio=1.40 / aq=1:0.80
    Default : Yes
    Forced : No

    Audio #1
    ID : 2
    Format : E-AC-3
    Format/Info : Enhanced Audio Coding 3
    Format settings, Endianness : Big
    Codec ID : A_EAC3
    Duration : 54 min 10 s
    Bit rate mode : Constant
    Bit rate : 640 kb/s
    Channel(s) : 6 channels
    Channel positions : Front: L C R, Side: L R, LFE
    Sampling rate : 48.0 kHz
    Frame rate : 187.500 FPS (256 SPF)
    Compression mode : Lossy
    Stream size : 248 MiB (19%)
    Title : [Thai-AC-3]
    Language : Thai
    Service kind : Complete Main
    Default : Yes
    Forced : No

    Audio #2
    ID : 3
    Format : E-AC-3
    Format/Info : Enhanced Audio Coding 3
    Format settings, Endianness : Big
    Codec ID : A_EAC3
    Duration : 54 min 10 s
    Bit rate mode : Constant
    Bit rate : 640 kb/s
    Channel(s) : 6 channels
    Channel positions : Front: L C R, Side: L R, LFE
    Sampling rate : 48.0 kHz
    Frame rate : 187.500 FPS (256 SPF)
    Compression mode : Lossy
    Stream size : 248 MiB (19%)
    Title : [English-AC-3]
    Language : English
    Service kind : Complete Main
    Default : No
    Forced : No

    Text #1
    ID : 4
    Format : PGS
    Muxing mode : zlib
    Codec ID : S_HDMV/PGS
    Codec ID/Info : Picture based subtitle format used on BDs/HD-DVDs
    Duration : 51 min 51 s
    Bit rate : 964 b/s
    Count of elements : 30
    Stream size : 366 KiB (0%)
    Title : [Thai Netflix Forced PGS]
    Language : Thai
    Default : Yes
    Forced : No

    Text #2
    ID : 5
    Format : PGS
    Muxing mode : zlib
    Codec ID : S_HDMV/PGS
    Codec ID/Info : Picture based subtitle format used on BDs/HD-DVDs
    Duration : 51 min 51 s
    Bit rate : 32.4 kb/s
    Count of elements : 1000
    Stream size : 12.0 MiB (1%)
    Title : [Thai Netflix PGS]
    Language : Thai
    Default : No
    Forced : No

    Text #3
    ID : 6
    Format : UTF-8
    Codec ID : S_TEXT/UTF8
    Codec ID/Info : UTF-8 Plain Text
    Duration : 51 min 51 s
    Bit rate : 2 b/s
    Count of elements : 15
    Stream size : 1.02 KiB (0%)
    Title : SRT Forced
    Language : Thai
    Default : No
    Forced : No

    Text #4
    ID : 7
    Format : UTF-8
    Codec ID : S_TEXT/UTF8
    Codec ID/Info : UTF-8 Plain Text
    Duration : 51 min 51 s
    Bit rate : 96 b/s
    Count of elements : 500
    Stream size : 36.7 KiB (0%)
    Title : SRT
    Language : Thai
    Default : No
    Forced : No

    Text #5
    ID : 8
    Format : UTF-8
    Codec ID : S_TEXT/UTF8
    Codec ID/Info : UTF-8 Plain Text
    Duration : 50 min 12 s
    Bit rate : 46 b/s
    Count of elements : 561
    Stream size : 17.2 KiB (0%)
    Title : SRT
    Language : English
    Default : No
    Forced : No






    Download:filecondo
    The.Sandman.(2022).เดอะ.แซนด์แมน.S01E10.หัวใจที่สา บสูญ.1080p.mkv
    http://www.filecondo.com/dl.php?f=d95e6b1OjWs2

    The.Sandman.(2022).เดอะ.แซนด์แมน.S01E09.เหล่านักสะ สม.1080p.mkv
    http://www.filecondo.com/dl.php?f=ud8e0b1OjWr2

    The.Sandman.(2022).เดอะ.แซนด์แมน.S01E08.บทครอบครัว .1080p.mkv
    http://www.filecondo.com/dl.php?f=ta723d1OjWp4

    The.Sandman.(2022).เดอะ.แซนด์แมน.S01E07.บ้านตุ๊กตา .1080p.mkv
    http://www.filecondo.com/dl.php?f=Hdab951OjWo4

    The.Sandman.(2022).เดอะ.แซนด์แมน.S01E06.เสียงกระพื อปีก.1080p.mkv
    http://www.filecondo.com/dl.php?f=Sb6f841OjWnb

    The.Sandman.(2022).เดอะ.แซนด์แมน.S01E05.24-7.1080p.mkv
    http://www.filecondo.com/dl.php?f=4c47ba1OjWmd

    The.Sandman.(2022).เดอะ.แซนด์แมน.S01E04.ความหวังใน นรก.1080p.mkv
    http://www.filecondo.com/dl.php?f=6d24881OjWle

    The.Sandman.(2022).เดอะ.แซนด์แมน.S01E03.ห้วงแห่งคว ามฝัน.1080p.mkv
    http://www.filecondo.com/dl.php?f=z195261OjWjJ

    The.Sandman.(2022).เดอะ.แซนด์แมน.S01E02.พาหะที่บกพ ร่อง.1080p.mkv
    http://www.filecondo.com/dl.php?f=Ic5c5d1OjWij

    The.Sandman.(2022).เดอะ.แซนด์แมน.S01E01.ความยุติธร รมที่หลับใหล.1080p.mkv
    http://www.filecondo.com/dl.php?f=Q31e421OjWho

    Download:cornfile
    The.Sandman.(2022).เดอะ.แซนด์แมน.S01E01.ความยุติธร รมที่หลับใหล.1080p.mkv - 1.3 GB
    The.Sandman.(2022).เดอะ.แซนด์แมน.S01E02.พาหะที่บกพ ร่อง.1080p.mkv - 913.4 MB
    The.Sandman.(2022).เดอะ.แซนด์แมน.S01E03.ห้วงแห่งคว ามฝัน.1080p.mkv - 1.0 GB
    The.Sandman.(2022).เดอะ.แซนด์แมน.S01E04.ความหวังใน นรก.1080p.mkv - 1.1 GB
    The.Sandman.(2022).เดอะ.แซนด์แมน.S01E05.24-7.1080p.mkv - 1.1 GB
    The.Sandman.(2022).เดอะ.แซนด์แมน.S01E06.เสียงกระพื อปีก.1080p.mkv - 1.1 GB
    The.Sandman.(2022).เดอะ.แซนด์แมน.S01E07.บ้านตุ๊กตา .1080p.mkv - 924.1 MB
    The.Sandman.(2022).เดอะ.แซนด์แมน.S01E08.บทครอบครัว .1080p.mkv - 1002.3 MB
    The.Sandman.(2022).เดอะ.แซนด์แมน.S01E09.เหล่านักสะ สม.1080p.mkv - 923.1 MB
    The.Sandman.(2022).เดอะ.แซนด์แมน.S01E10.หัวใจที่สา บสูญ.1080p.mkv - 980.7 MB

  2. The Following User Says Thank You to Duckload.us For This Useful Post:

    Wesker_TOT (08-06-2022)

  3. #2
    Senior Member
    สมัครเมื่อ
    Dec 2013
    โพสต์
    3,801
    Thanks
    5,706
    Thanked 0 Times in 0 Posts
    ขอบคุณครับ...

  4. #3
    Senior Member
    สมัครเมื่อ
    Jul 2012
    โพสต์
    8,036
    Thanks
    0
    Thanked 0 Times in 0 Posts
    ขอบคุณมากจ้า

+ ตอบกลับกระทู้

ข้อมูลกระทู้

Users Browsing this Thread

ในขณะนี้มี 1 ท่านดูกระทู้อยู่. (0 สมาชิกและ 1 ผู้เยี่ยมชม)

     

กฎการโพสต์ข้อความ

  • ท่าน ไม่สามารถ ตั้งกระทู้ใหม่ได้
  • ท่าน ไม่สามารถ ตอบกระทู้ได้
  • ท่าน ไม่สามารถ แนบไฟล์ได้
  • ท่าน ไม่สามารถ แก้ไขข้อความโพสต์ได้
  • BB code สถานะ เปิด
  • Smilies สถานะ เปิด
  • [IMG] สถานะ เปิด
  • HTML สถานะ ปิด