+ ตอบกลับกระทู้
สรุปผลการค้นหา 1 ถึง 1 จากทั้งหมด 1
  1. #1
    Administrators รูปส่วนตัว Duckload.us
    สมัครเมื่อ
    Dec 2010
    โพสต์
    138,153
    Thanks
    7
    Thanked 144,384 Times in 62,752 Posts

    Angry [ญี่ปุ่น]-Kamen Rider Wizard คาเมนไรเดอร์ วิซาร์ด ตอนที่ 1-53 จบ เสียงไทยจาก Flixer-Blu-ray.H.264.1080p. [rip from Master]-[พากย์ไทย]




    คาเมนไรเดอร์ วิซาร์ด ไรเดอร์ที่ใช้พลังเวทมนต์ในการต่อสู้เพื่อปกป้อง มนุษย์ ให้ปลอดภัยจากพวก Phantom หรือพวกปีศาจที่ต้องการ มาจัดการกับมนุษย์ ที่มีพลังเวทซ่อนอยู่ภายในตัวของมนุษย์คนนั้น....
    แฟนธอม คือปีศาจ ที่คอยตามหา มนุษย์ ที่มีพลังเวทอยู่ในตัว พลังเวทที่ว่านี้ก็เกิดจาก มอนสเตอร์ที่อยู่ภายในจิตใจลึกๆของ มนุษย์ผู้นั้น โดยที่มนุษย์แต่ละคน ก็จะมีพลังไม่เหมือน... แฟนธอม เรียกมนุษย์ที่มีมอนสเตอร์พวกนี้อยู่ภายในตัวว่า เกท (Gate ที่แปลว่าประตู เออ เล่นเรียกกันตรงๆแบบนี้ เล่นง่ายดี) เมื่อ แฟนธอม ได้เจอกับมนุษย์ ที่เป็น เกท แล้ว แฟนธอม จะหาวิธีำให้ เกท สูญสิ้นความหวัง และท้อแท้ เมื่อ เกท จิตใจสิ้นหวังจนถึงขีดสุด แฟนธอม ที่ซ่อนอยู่ภายในจิตใจของ เกท จะเข้ากัดกิน เกท ที่สูญสิ้นความหวังผู้นั้นจนตาย และเมื่อ เกท ตาย ก็จะให้กำเหนิด แฟนธอม ตัวใหม่โดยสมบูรณ์แบบขึ้นมา และนี่ก็คือ จุดประสงค์ของ แฟนธอม ในการยึดครองโลกโดย ทำการเพิ่มจำนวนประชากร แฟนธอม ให้มากที่สุดเท่าที่จะมากได้.... ดังนั้นหน้าที่ของ จอมเวท อย่างคาเมนไรเดอร์วิซาร์ด ก็คือ หยุดยั้งแฟนธอม และช่วยเหลือ เกท ให้รอดจากการเป็นแฟนธอมให้ได้... การต่อสู้ระหว่างจอมเวท และ แฟนธอม จึงได้เริ่มต้นขึ้น


    Video
    ID : 1
    Format : AVC
    Format/Info : Advanced Video Codec
    Format profile : [email protected]
    Format settings, CABAC : Yes
    Format settings, RefFrames : 4 frames
    Codec ID : V_MPEG4/ISO/AVC
    Duration : 23 min 5 s
    Bit rate : 6 255 kb/s
    Width : 1 920 pixels
    Height : 1 080 pixels
    Display aspect ratio : 16:9
    Frame rate mode : Constant
    Frame rate : 23.976 (24000/1001) FPS
    Color space : YUV
    Chroma subsampling : 4:2:0
    Bit depth : 8 bits
    Scan type : Progressive
    Bits/(Pixel*Frame) : 0.126
    Stream size : 1.01 GiB (93%)
    Title : Episode 1 - The Ring-Bearing Wizard
    Writing library : x264 core 144 r2525kMod 40bb568
    Encoding settings : cabac=1 / ref=4 / deblock=1:-1:-1 / analyse=0x3:0x133 / me=umh / subme=10 / psy=1 / fade_compensate=0.00 / psy_rd=1.00:0.15 / mixed_ref=1 / me_range=24 / chroma_me=1 / trellis=2 / 8x8dct=1 / cqm=0 / deadzone=21,11 / fast_pskip=1 / chroma_qp_offset=-2 / threads=4 / lookahead_threads=1 / sliced_threads=0 / nr=0 / decimate=1 / interlaced=0 / bluray_compat=0 / constrained_intra=0 / fgo=0 / bframes=12 / b_pyramid=2 / b_adapt=2 / b_bias=0 / direct=3 / weightb=1 / open_gop=0 / weightp=2 / keyint=240 / keyint_min=22 / scenecut=40 / intra_refresh=0 / rc_lookahead=60 / rc=crf / mbtree=1 / crf=22.5000 / qcomp=0.70 / qpmin=0 / qpmax=69 / qpstep=3 / ip_ratio=1.40 / aq=1:1.00
    Language : Japanese
    Default : Yes
    Forced : No

    Audio #1
    ID : 2
    Format : AAC
    Format/Info : Advanced Audio Codec
    Format profile : LC
    Codec ID : A_AAC
    Duration : 23 min 5 s
    Bit rate : 162 kb/s
    Channel(s) : 2 channels
    Channel positions : Front: L R
    Sampling rate : 48.0 kHz
    Frame rate : 46.875 FPS (1024 SPF)
    Compression mode : Lossy
    Delay relative to video : 9 ms
    Stream size : 26.8 MiB (2%)
    Title : Japanese Stereo 2ch AAC
    Language : Japanese
    Default : No
    Forced : No

    Audio #2
    ID : 3
    Format : AAC
    Format/Info : Advanced Audio Codec
    Format profile : LC
    Codec ID : A_AAC
    Duration : 23 min 5 s
    Bit rate : 317 kb/s
    Channel(s) : 2 channels
    Channel positions : Front: L R
    Sampling rate : 48.0 kHz
    Frame rate : 46.875 FPS (1024 SPF)
    Compression mode : Lossy
    Stream size : 52.4 MiB (5%)
    Title : Thai Stereo 2ch AAC
    Language : Thai
    Default : Yes
    Forced : No

    Text
    ID : 4
    Format : ASS
    Codec ID : S_TEXT/ASS
    Codec ID/Info : Advanced Sub Station Alpha
    Duration : 23 min 0 s
    Bit rate : 68 b/s
    Count of elements : 220
    Compression mode : Lossless
    Stream size : 11.5 KiB (0%)
    Title : English Subtitles
    Language : English
    Default : No
    Forced : No

    Menu
    00:00:00.000 : :Cold Open
    00:04:48.177 : :Part A
    00:20:35.044 : :Part B
    00:22:50.085 : :Preview



    Kamen Rider Wizard BD Box E01 'The Ring-Bearing Wizard' [1080p].mkv - 1.1 GB
    Kamen Rider Wizard BD Box E02 'I Want to be a Wizard' [1080p].mkv - 1.1 GB
    Kamen Rider Wizard BD Box E03 'Transform! The Live Broadcast' [1080p].mkv - 1.1 GB
    Kamen Rider Wizard BD Box E04 'The Pianist and the Doll' [1080p].mkv - 1.3 GB
    Kamen Rider Wizard BD Box E05 'The Final Competition' [1080p].mkv - 1.3 GB
    Kamen Rider Wizard BD Box E06 'For a Beautiful Flower' [1080p].mkv - 1.6 GB
    Kamen Rider Wizard BD Box E07 'Buying Memories' [1080p].mkv - 1.1 GB
    Kamen Rider Wizard BD Box E08 'A New Magic Stone' [1080p].mkv - 1.1 GB
    Kamen Rider Wizard BD Box E09 'Dragon's Roar' [1080p].mkv - 913.0 MB
    Kamen Rider Wizard BD Box E10 'NSA Section Zero' [1080p].mkv - 966.9 MB
    Kamen Rider Wizard BD Box E11 'A Promise to Protect' [1080p].mkv - 1.1 GB
    Kamen Rider Wizard BD Box E12 'The Sweets of Hope' [1080p].mkv - 1.0 GB
    Kamen Rider Wizard BD Box E13 'Inheriting the Dream' [1080p].mkv - 1.0 GB
    Kamen Rider Wizard BD Box E14 'The Film Director Returns' [1080p].mkv - 959.0 MB
    Kamen Rider Wizard BD Box E15 'After The Last Scene' [1080p].mkv - 1.1 GB
    Kamen Rider Wizard BD Box E16 'A Christmas Miracle' [1080p].mkv - 1.2 GB
    Kamen Rider Wizard BD Box E17 'Another Wizard' [1080p].mkv - 1.2 GB
    Kamen Rider Wizard BD Box E18 'Mana for a Meal' [1080p].mkv - 1.3 GB
    Kamen Rider Wizard BD Box E19 'Life Today, Life Tomorrow' [1080p].mkv - 1.3 GB
    Kamen Rider Wizard BD Box E20 'Approaching the Truth' [1080p].mkv - 1.3 GB
    Kamen Rider Wizard BD Box E21 'Dance of the Dragons' [1080p].mkv - 1.5 GB
    Kamen Rider Wizard BD Box E22 'The Phoenix Cuts Loose' [1080p].mkv - 1.1 GB
    Kamen Rider Wizard BD Box E23 'Decisive Battle' [1080p].mkv - 1.1 GB
    Kamen Rider Wizard BD Box E24 'The Wizard's Grandmother' [1080p].mkv - 1.1 GB
    Kamen Rider Wizard BD Box E25 'Life Decisions' [1080p].mkv - 1.1 GB
    Kamen Rider Wizard BD Box E26 'Sneaking into School' [1080p].mkv - 1.3 GB
    Kamen Rider Wizard BD Box E27 'Sisters' [1080p].mkv - 1.1 GB
    Kamen Rider Wizard BD Box E28 'The Stolen Belt' [1080p].mkv - 1.1 GB
    Kamen Rider Wizard BD Box E29 'Evolving Beast' [1080p].mkv - 1.2 GB
    Kamen Rider Wizard BD Box E30 'The Day the Magic Died' [1080p].mkv - 1.1 GB
    Kamen Rider Wizard BD Box E31 'His Tears' [1080p].mkv - 1.2 GB
    Kamen Rider Wizard BD Box E32 'Part-Time Danger' [1080p].mkv - 1.1 GB
    Kamen Rider Wizard BD Box E33 'Things Money Can't Buy' [1080p].mkv - 1.1 GB
    Kamen Rider Wizard BD Box E34 'The Model's Dark Side' [1080p].mkv - 1.1 GB
    Kamen Rider Wizard BD Box E35 'Another Side of Sora' [1080p].mkv - 1.1 GB
    Kamen Rider Wizard BD Box E36 'The Myna Bird Speaks' [1080p].mkv - 1.1 GB
    Kamen Rider Wizard BD Box E37 'The Fugitive's Despair' [1080p].mkv - 1.2 GB
    Kamen Rider Wizard BD Box E38 'Stolen Hope' [1080p].mkv - 1.1 GB
    Kamen Rider Wizard BD Box E39 'What He Forgot on the Field' [1080p].mkv - 952.6 MB
    Kamen Rider Wizard BD Box E40 'I Want to Ride a Bicycle' [1080p].mkv - 1.2 GB
    Kamen Rider Wizard BD Box E41 'A Fate of Wizardry' [1080p].mkv - 1.2 GB
    Kamen Rider Wizard BD Box E42 'The Ringed Novelist' [1080p].mkv - 1.1 GB
    Kamen Rider Wizard BD Box E43 'The White Wizard's Secret' [1080p].mkv - 1.1 GB
    Kamen Rider Wizard BD Box E44 'Memento of My Son' [1080p].mkv - 1014.8 MB
    Kamen Rider Wizard BD Box E45 'A Smile in Your Heart' [1080p].mkv - 1.1 GB
    Kamen Rider Wizard BD Box E46 'Cracked Memories' [1080p].mkv - 1.1 GB
    Kamen Rider Wizard BD Box E47 'Wiseman's Revelations' [1080p].mkv - 1.3 GB
    Kamen Rider Wizard BD Box E48 'The Philosopher's Stone' [1080p].mkv - 989.5 MB
    Kamen Rider Wizard BD Box E49 'The Sabbat Begins' [1080p].mkv - 986.6 MB
    Kamen Rider Wizard BD Box E50 'What Matters the Most' [1080p].mkv - 1.1 GB
    Kamen Rider Wizard BD Box E51 'The Last Hope' [1080p].mkv - 1007.6 MB
    Kamen Rider Wizard BD Box E52 'The Kamen Rider Rings' [1080p].mkv - 1.1 GB
    Kamen Rider Wizard BD Box E53 'The Neverending Story' [1080p].mkv - 1.2 GB

  2. The Following User Says Thank You to Duckload.us For This Useful Post:

    scsyn (08-20-2022)

+ ตอบกลับกระทู้

ข้อมูลกระทู้

Users Browsing this Thread

ในขณะนี้มี 1 ท่านดูกระทู้อยู่. (0 สมาชิกและ 1 ผู้เยี่ยมชม)

     

กฎการโพสต์ข้อความ

  • ท่าน ไม่สามารถ ตั้งกระทู้ใหม่ได้
  • ท่าน ไม่สามารถ ตอบกระทู้ได้
  • ท่าน ไม่สามารถ แนบไฟล์ได้
  • ท่าน ไม่สามารถ แก้ไขข้อความโพสต์ได้
  • BB code สถานะ เปิด
  • Smilies สถานะ เปิด
  • [IMG] สถานะ เปิด
  • HTML สถานะ ปิด