+ ตอบกลับกระทู้
สรุปผลการค้นหา 1 ถึง 2 จากทั้งหมด 2
  1. #1
    Administrators รูปส่วนตัว Duckload.us
    สมัครเมื่อ
    Dec 2010
    โพสต์
    138,367
    Thanks
    7
    Thanked 144,625 Times in 62,848 Posts

    Thumbs up [ไต้หวัน] Ne Zha (Chi Zha Feng Yun (2021)) ซิ่งให้สุดหยุดที่เธอ [พากย์:จีน/ไทย มาสเตอร์][SUB:อังกฤษ][1080p]



    สำหรับใครที่เป็นคอหนังแนวประลองความเร็ว ท้ามฤตยูห้ามพลาดกันเลยทีเดียวกับภาพยนตร์ฟอร์มยักษ์ เรื่อง ‘NEZHA race1’ ที่จะมาปลดปล่อยทุกความมันส์ ตื่นเต้น เร้าใจให้แฟนๆ หลายคนอาจคุ้นหูกับชื่อ “Nezha” ที่หมายถึง “นาจา” เทพเจ้าเด็กผู้ทรงอิทธิฤทธิ์ตามคติความเชื่อของจีน อย่างไรก็ตาม NEZHA race 1 ไม่เกี่ยวข้องกับตำนานเทพแต่อย่างใด แต่เป็นภาพยนตร์แอคชันซิ่งรถแข่ง ที่จะถ่ายทอดเรื่องราวชีวิต การเติบโตของเหล่านักแข่งรถรุ่นใหม่ รวมทั้งบอกเล่าความสามัคคี การทำงานเป็นทีมเวิร์คเพื่อไขว่คว้าความสำเร็จ

    Format : Matroska
    Format version : Version 4
    File size : 4.02 GiB
    Duration : 1 h 44 min
    Overall bit rate : 5 493 kb/s
    Movie name : Ne.Zha.2021.1080p.BluRay.x264.AAC5.1_©GOLD CUP™_WWW.TT-TORRENT.COM
    Attachments : cover

    Video
    ID : 1
    Format : AVC
    Format/Info : Advanced Video Codec
    Format profile : [email protected]
    Format settings : CABAC / 4 Ref Frames
    Format settings, CABAC : Yes
    Format settings, Reference : 4 frames
    Codec ID : V_MPEG4/ISO/AVC
    Duration : 1 h 44 min
    Bit rate : 2 250 kb/s
    Width : 1 920 pixels
    Height : 804 pixels
    Display aspect ratio : 2.40:1
    Frame rate mode : Constant
    Frame rate : 24.000 FPS
    Color space : YUV
    Chroma subsampling : 4:2:0
    Bit depth : 8 bits
    Scan type : Progressive
    Bits/(Pixel*Frame) : 0.061
    Stream size : 1.65 GiB (41%)
    Title : Ne.Zha.2021.1080p.BluRay.x264.AAC5.1_©GOLD CUP™
    Writing library : x264 core 161
    Language : Chinese
    Default : Yes
    Forced : No

    Audio #1
    ID : 2
    Format : AAC LC
    Format/Info : Advanced Audio Codec Low Complexity
    Codec ID : A_AAC-2
    Duration : 1 h 44 min
    Bit rate : 384 kb/s
    Channel(s) : 6 channels
    Channel layout : C L R Ls Rs LFE
    Sampling rate : 48.0 kHz
    Frame rate : 46.875 FPS (1024 SPF)
    Compression mode : Lossy
    Delay relative to video : -43 ms
    Stream size : 288 MiB (7%)
    Title : Chi.AAC_384 kbs.6 channels
    Language : Zhuang
    Default : Yes
    Forced : No

    Audio #2
    ID : 3
    Format : AC-3
    Format/Info : Audio Coding 3
    Commercial name : Dolby Digital
    Codec ID : A_AC3
    Duration : 1 h 44 min
    Bit rate mode : Constant
    Bit rate : 192 kb/s
    Channel(s) : 2 channels
    Channel layout : L R
    Sampling rate : 48.0 kHz
    Frame rate : 31.250 FPS (1536 SPF)
    Compression mode : Lossy
    Delay relative to video : -43 ms
    Stream size : 144 MiB (3%)
    Title : Th.2.0.AC3.192k
    Language : Thai
    Service kind : Complete Main
    Default : Yes
    Forced : No

    Audio #3
    ID : 4
    Format : DTS
    Format/Info : Digital Theater Systems
    Codec ID : A_DTS
    Duration : 1 h 44 min
    Bit rate mode : Constant
    Bit rate : 2 646 kb/s
    Channel(s) : 6 channels
    Channel layout : C L R Ls Rs LFE
    Sampling rate : 32.0 kHz
    Frame rate : 31.250 FPS (1024 SPF)
    Bit depth : 16 bits
    Compression mode : Lossy
    Delay relative to video : -43 ms
    Stream size : 1.94 GiB (48%)
    Title : Chi.DTS.5.1_Sample Rate 32000
    Language : Chinese
    Default : Yes
    Forced : No

    Text
    ID : 5
    Format : PGS
    Muxing mode : zlib
    Codec ID : S_HDMV/PGS
    Codec ID/Info : Picture based subtitle format used on BDs/HD-DVDs
    Duration : 1 h 37 min
    Bit rate : 37.6 kb/s
    Frame rate : 0.415 FPS
    Count of elements : 2426
    Stream size : 26.2 MiB (1%)
    Title : EN.110.3.83.Yellow
    Language : English
    Default : No
    Forced : No





    Download:filecondo
    http://www.filecondo.com/dl.php?f=Pb08ab1Onc3Q
    Download:cornfile
    https://www.cornfile.com/1a2jgxmkl7iu

  2. The Following User Says Thank You to Duckload.us For This Useful Post:

    Jodz14 (08-14-2022)

  3. #2
    Senior Member
    สมัครเมื่อ
    Jul 2013
    โพสต์
    3,407
    Thanks
    0
    Thanked 0 Times in 0 Posts
    ขอบคุณครับ

+ ตอบกลับกระทู้

ข้อมูลกระทู้

Users Browsing this Thread

ในขณะนี้มี 1 ท่านดูกระทู้อยู่. (0 สมาชิกและ 1 ผู้เยี่ยมชม)

     

กฎการโพสต์ข้อความ

  • ท่าน ไม่สามารถ ตั้งกระทู้ใหม่ได้
  • ท่าน ไม่สามารถ ตอบกระทู้ได้
  • ท่าน ไม่สามารถ แนบไฟล์ได้
  • ท่าน ไม่สามารถ แก้ไขข้อความโพสต์ได้
  • BB code สถานะ เปิด
  • Smilies สถานะ เปิด
  • [IMG] สถานะ เปิด
  • HTML สถานะ ปิด