+ ตอบกลับกระทู้
สรุปผลการค้นหา 1 ถึง 9 จากทั้งหมด 9
  1. #1
    Administrators รูปส่วนตัว Duckload.us
    สมัครเมื่อ
    Dec 2010
    โพสต์
    139,860
    Thanks
    7
    Thanked 146,372 Times in 63,686 Posts

    Lightbulb [ฝรั่ง]-She-Hulk Attorney at Law (2022) S01E01-09 [จบซีซั่น]-WEB-DL.H.264.1080p. [Hi-def rip from Master]-[พากย์ไทย บรรยายไทย]




    ซีรีส์ออริจินัล Marvel Studios’ She-Hulk: Attorney at Law จะพาผู้ชมไปรู้จักกับเจนนิเฟอร์ วอลเตอร์ส ทนายสาวโสดมากความสามารถวัย 30 กว่า ผู้มีผิวเป็นสีเขียว สูงเกือบ 2 เมตร และมีพลังแบบ Hulk โดยมีด้วยกันทั้งหมด 9 ตอน พร้อมขนทัพนักแสดงและซูเปอร์ฮีโร่กันมาอย่างคับคั่ง ทั้ง มาร์ก รัฟฟาโล (Marc Ruffalo) ในบท Smart Hulk, ทิม รอท (Tim Roth) กับบทบาท อีมิล บลอนสกี หรือ Abdomination และ เบเนดิคท์ หว่อง (Benedict Wong) ในบทหว่อง ไม่เพียงเท่านี้ยังได้ จินเจอร์ กอนซากา (Ginger Gonzaga), จอช เซการ์รา (Josh Segarra), จามีลา จามิล (Jameela Jamil), จอน เบส (Jon Bass) และเรเน เอลิเซ โกลด์สเบอร์รี (René e Elise Goldsberry) เสริมทัพความสนุกให้กับซีรีส์ออริจินัลเรื่องนี้อีกด ้วย ซีรีส์เรื่องนี้อำนวยการสร้างโดย เควิน ไฟกี (Kevin Feige), หลุยส์ เดอเอสโพซิโต (Louis D’Esposito), วิคตอรีย อลอนโซ่(Victoria Alonso), แบรด ไวน์เดอร์บอม (Brad Winderbaum), แคต คอโร (Kat Coiro) และ เจสซิกา เกา (Jessica Gao)

    Format : Matroska
    Format version : Version 4 / Version 2
    File size : 1.84 GiB
    Duration : 35 min 22 s
    Overall bit rate mode : Variable
    Overall bit rate : 7 458 kb/s
    Encoded date : UTC 2022-08-18 14:07:28
    Writing application : mkvmerge v55.0.0 ('Waiting For Space') 64-bit
    Writing library : libebml v1.4.2 + libmatroska v1.6.4

    Video
    ID : 1
    Format : AVC
    Format/Info : Advanced Video Codec
    Format profile : [email protected]
    Format settings, CABAC : Yes
    Format settings, ReFrames : 4 frames
    Codec ID : V_MPEG4/ISO/AVC
    Duration : 35 min 22 s
    Bit rate mode : Variable
    Bit rate : 6 219 kb/s
    Maximum bit rate : 12.7 Mb/s
    Width : 1 920 pixels
    Height : 1 080 pixels
    Display aspect ratio : 16:9
    Frame rate mode : Constant
    Frame rate : 24.000 FPS
    Color space : YUV
    Chroma subsampling : 4:2:0
    Bit depth : 8 bits
    Scan type : Progressive
    Bits/(Pixel*Frame) : 0.125
    Stream size : 1.54 GiB (83%)
    Language : English
    Default : Yes
    Forced : No
    Color range : Limited
    Color primaries : BT.709
    Transfer characteristics : BT.709
    Matrix coefficients : BT.709

    Audio #1
    ID : 2
    Format : AC-3
    Format/Info : Audio Coding 3
    Mode extension : CM (complete main)
    Format settings, Endianness : Big
    Codec ID : A_AC3
    Duration : 35 min 22 s
    Bit rate mode : Constant
    Bit rate : 448 kb/s
    Channel(s) : 2 channels
    Channel positions : Front: L R
    Sampling rate : 48.0 kHz
    Frame rate : 31.250 FPS (1536 spf)
    Compression mode : Lossy
    Stream size : 113 MiB (6%)
    Language : Thai
    Default : Yes
    Forced : No

    Audio #2
    ID : 3
    Format : E-AC-3
    Format/Info : Audio Coding 3
    Format settings, Endianness : Big
    Codec ID : A_EAC3
    Duration : 35 min 22 s
    Bit rate mode : Constant
    Bit rate : 768 kb/s
    Channel(s) : 6 channels
    Channel positions : Front: L C R, Side: L R, LFE
    Sampling rate : 48.0 kHz
    Frame rate : 187.500 FPS (256 spf)
    Compression mode : Lossy
    Stream size : 194 MiB (10%)
    Language : English
    Default : No
    Forced : No

    Text #1
    ID : 4
    Format : PGS
    Muxing mode : zlib
    Codec ID : S_HDMV/PGS
    Codec ID/Info : Picture based subtitle format used on BDs/HD-DVDs
    Duration : 34 min 34 s
    Bit rate : 39.2 kb/s
    Count of elements : 1016
    Stream size : 9.69 MiB (1%)
    Language : Thai
    Default : Yes
    Forced : Yes

    Text #2
    ID : 5
    Format : UTF-8
    Codec ID : S_TEXT/UTF8
    Codec ID/Info : UTF-8 Plain Text
    Duration : 34 min 34 s
    Bit rate : 138 b/s
    Count of elements : 508
    Stream size : 35.1 KiB (0%)
    Language : Thai
    Default : No
    Forced : No

    Text #3
    ID : 6
    Format : UTF-8
    Codec ID : S_TEXT/UTF8
    Codec ID/Info : UTF-8 Plain Text
    Duration : 32 min 4 s
    Bit rate : 89 b/s
    Count of elements : 660
    Stream size : 21.1 KiB (0%)
    Title : English (SDH)
    Language : English
    Default : No
    Forced : No





    Download:filecondo
    1 http://www.filecondo.com/dl.php?f=ybc4ce1OoZ1g
    2 http://www.filecondo.com/dl.php?f=16db0d1OrRGF
    3 http://www.filecondo.com/dl.php?f=Wc509d1Ou2W7
    4 http://www.filecondo.com/dl.php?f=99d9451OwflC
    4 http://www.filecondo.com/dl.php?f=Paf3731OwBhn
    5 http://www.filecondo.com/dl.php?f=Ec1f421OyL9v
    6 http://www.filecondo.com/dl.php?f=Sa018c1OBkJZ
    7 http://www.filecondo.com/dl.php?f=i5db681OE7vw
    8 http://www.filecondo.com/dl.php?f=w2c6981OGEA7
    9 http://www.filecondo.com/dl.php?f=rc697a1OIWLV

    Download:cornfile
    1 https://www.cornfile.com/dywzsijxvsc2
    2 https://www.cornfile.com/3zv0phoia253
    3 https://www.cornfile.com/h3txhpjadf5i
    4 https://www.cornfile.com/48hdmomdbal5
    4 https://www.cornfile.com/c2vmxcetw8im
    5 https://www.cornfile.com/b2zycm7pv1wc
    6 https://www.cornfile.com/9rqsixsz2bd7
    7 ทีมงาน Duckload ขอระงับการอัพไฟล์ใหม่ๆ ขึ้น cornfile ทั้งหมด Click!!

  2. The Following 6 Users Say Thank You to Duckload.us For This Useful Post:

    jackjangri (08-29-2022), kappa (09-17-2022), santanmoon (08-22-2022), sawara (08-28-2022), Wesker_TOT (08-20-2022), whiteherbie (11-20-2022)

  3. #2
    Senior Member
    สมัครเมื่อ
    Dec 2013
    โพสต์
    4,172
    Thanks
    6,072
    Thanked 0 Times in 0 Posts
    ขอบคุณครับ...

  4. #3
    Senior Member
    สมัครเมื่อ
    Dec 2013
    โพสต์
    698
    Thanks
    648
    Thanked 0 Times in 0 Posts
    ขอบคุณครับบ

  5. #4
    I'm donate !
    สมัครเมื่อ
    Jun 2011
    โพสต์
    568
    Thanks
    717
    Thanked 40 Times in 29 Posts
    ขอบคุณครับ...

  6. #5
    Junior Member รูปส่วนตัว petpina2010
    สมัครเมื่อ
    Jun 2020
    โพสต์
    28
    Thanks
    0
    Thanked 0 Times in 0 Posts
    ขอบคุณครับ

  7. #6
    Administrators รูปส่วนตัว Duckload.us
    สมัครเมื่อ
    Dec 2010
    โพสต์
    139,860
    Thanks
    7
    Thanked 146,372 Times in 63,686 Posts
    She-Hulk Attorney at Law (2022) S01E01-06

  8. #7
    Senior Member
    สมัครเมื่อ
    Jul 2013
    โพสต์
    3,529
    Thanks
    0
    Thanked 0 Times in 0 Posts
    ขอบคุณครับ

  9. #8
    Administrators รูปส่วนตัว Duckload.us
    สมัครเมื่อ
    Dec 2010
    โพสต์
    139,860
    Thanks
    7
    Thanked 146,372 Times in 63,686 Posts
    She-Hulk Attorney at Law (2022) S01E01-09 [จบซีซั่น]

  10. #9
    Senior Member
    สมัครเมื่อ
    Dec 2011
    โพสต์
    2,902
    Thanks
    451
    Thanked 0 Times in 0 Posts
    ขอบคุณมากค่ะ

+ ตอบกลับกระทู้

ข้อมูลกระทู้

Users Browsing this Thread

ในขณะนี้มี 1 ท่านดูกระทู้อยู่. (0 สมาชิกและ 1 ผู้เยี่ยมชม)

     

กฎการโพสต์ข้อความ

  • ท่าน ไม่สามารถ ตั้งกระทู้ใหม่ได้
  • ท่าน ไม่สามารถ ตอบกระทู้ได้
  • ท่าน ไม่สามารถ แนบไฟล์ได้
  • ท่าน ไม่สามารถ แก้ไขข้อความโพสต์ได้
  • BB code สถานะ เปิด
  • Smilies สถานะ เปิด
  • [IMG] สถานะ เปิด
  • HTML สถานะ ปิด