+ ตอบกลับกระทู้
สรุปผลการค้นหา 1 ถึง 2 จากทั้งหมด 2
  1. #1
    Administrators รูปส่วนตัว Duckload.us
    สมัครเมื่อ
    Dec 2010
    โพสต์
    139,860
    Thanks
    7
    Thanked 146,378 Times in 63,686 Posts

    Thumbs up [ฝรั่ง] Last Looks (2021) คดีป่วนพลิกฮอลลีวู้ด [พากย์:อังกฤษ/ไทย มาสเตอร์][SUB:No][1080i/p]



    สายสืบในกรมตำรวจแอลเอที่ถูกปลดประจำการเพราะประพฤติ เสื่อมเสียได้กลับมาทำงานอีกครั้งในฐานะนักสืบเอกชนเ พื่อสืบสวนคดีฆาตกรรมภรรยาของดาราทีวีจอมพิลึกคนหนึ่ ง

    Format : Matroska
    Format version : Version 4
    File size : 4.13 GiB
    Duration : 1 h 50 min
    Overall bit rate : 5 337 kb/s
    Movie name : Last Looks คดีป่วนพลิกฮอลลีวู้ด (2021)_©GOLD CUP™_WWW.TT-TORRENT.COM

    Video
    ID : 1
    Format : AVC
    Format/Info : Advanced Video Codec
    Format profile : [email protected]
    Format settings : CABAC / 1 Ref Frames
    Format settings, CABAC : Yes
    Format settings, Reference : 1 frame
    Format settings, GOP : M=1, N=25
    Codec ID : V_MPEG4/ISO/AVC
    Duration : 1 h 50 min
    Bit rate mode : Constant
    Bit rate : 4 658 kb/s
    Width : 1 920 pixels
    Height : 804 pixels
    Display aspect ratio : 2.40:1
    Frame rate mode : Constant
    Frame rate : 24.000 FPS
    Color space : YUV
    Chroma subsampling : 4:2:0
    Bit depth : 8 bits
    Scan type : Progressive
    Bits/(Pixel*Frame) : 0.126
    Stream size : 3.58 GiB (87%)
    Title : Last Looks คดีป่วนพลิกฮอลลีวู้ด (2021)_©GOLD CUP™
    Language : English
    Default : Yes
    Forced : No

    Audio #1
    ID : 2
    Format : AAC LC
    Format/Info : Advanced Audio Codec Low Complexity
    Codec ID : A_AAC-2
    Duration : 1 h 50 min
    Bit rate : 384 kb/s
    Channel(s) : 6 channels
    Channel layout : C L R Ls Rs LFE
    Sampling rate : 48.0 kHz
    Frame rate : 46.875 FPS (1024 SPF)
    Compression mode : Lossy
    Stream size : 305 MiB (7%)
    Title : En.AAC_384 kbs.6 channels
    Language : English
    Default : Yes
    Forced : No

    Audio #2
    ID : 3
    Format : MPEG Audio
    Format version : Version 1
    Format profile : Layer 3
    Format settings : Joint stereo / MS Stereo
    Codec ID : A_MPEG/L3
    Codec ID/Hint : MP3
    Duration : 1 h 50 min
    Bit rate mode : Constant
    Bit rate : 320 kb/s
    Channel(s) : 2 channels
    Sampling rate : 44.1 kHz
    Frame rate : 38.281 FPS (1152 SPF)
    Compression mode : Lossy
    Stream size : 254 MiB (6%)
    Title : Th.mp3.2.0_320 kbs
    Writing library : LAME3.99.5
    Language : Thai
    Default : Yes
    Forced : No





    Download:filecondo
    http://www.filecondo.com/dl.php?f=Kcba1e1OrRwD
    Download:cornfile
    https://www.cornfile.com/e26ol242h77i

  2. The Following 3 Users Say Thank You to Duckload.us For This Useful Post:

    Jodz14 (08-28-2022), noi54 (08-28-2022), sawara (08-28-2022)

  3. #2
    Senior Member
    สมัครเมื่อ
    Dec 2013
    โพสต์
    698
    Thanks
    648
    Thanked 0 Times in 0 Posts
    ขอบคุณครับบ

+ ตอบกลับกระทู้

ข้อมูลกระทู้

Users Browsing this Thread

ในขณะนี้มี 1 ท่านดูกระทู้อยู่. (0 สมาชิกและ 1 ผู้เยี่ยมชม)

     

กฎการโพสต์ข้อความ

  • ท่าน ไม่สามารถ ตั้งกระทู้ใหม่ได้
  • ท่าน ไม่สามารถ ตอบกระทู้ได้
  • ท่าน ไม่สามารถ แนบไฟล์ได้
  • ท่าน ไม่สามารถ แก้ไขข้อความโพสต์ได้
  • BB code สถานะ เปิด
  • Smilies สถานะ เปิด
  • [IMG] สถานะ เปิด
  • HTML สถานะ ปิด