+ ͺѺз
ػšä 1 ֧ 5 ҡ 5
  1. #1
    Administrators ٻǹ Duckload.us
    Ѥ
    Dec 2010
    ʵ
    139,860
    Thanks
    7
    Thanked 146,370 Times in 63,686 Posts

    Thumbs up []-Samaritan (2022) Էѹ-WEB-DL.H.264.1080p. [Modified]-[ҡ ]



    ˹ѧͧǢͧ硪¤˹ (Ѻ¹ѡʴ˹ ͹ ŵѹ) 龺ҫ֡Ѻµѧ Դ˵ȡү ѧժԵ ͹ҹͧͧ ѧҡҨҡⴹѡŧ ê硤ҵͧͧѺ ·ظú Ҩ֧ͧѺѺ˹ҷա

    Format : Matroska
    Format version : Version 4
    File size : 6.25 GiB
    Duration : 1 h 42 min
    Overall bit rate : 8 755 kb/s
    Movie name : Samaritan (2022 ) 1080p.AMZN.WEB-DL.DDP5.1.H.264 @bURIN
    Encoded date : UTC 2022-08-26 11:23:28
    Writing application : mkvmerge v68.0.0 ('The Curtain') 32-bit
    Writing library : libebml v1.4.2 + libmatroska v1.6.4
    Cover : Yes
    Attachments : cover

    Video
    ID : 1
    Format : AVC
    Format/Info : Advanced Video Codec
    Format profile : [email protected]
    Format settings : CABAC / 4 Ref Frames
    Format settings, CABAC : Yes
    Format settings, Reference frames : 4 frames
    Codec ID : V_MPEG4/ISO/AVC
    Duration : 1 h 42 min
    Bit rate mode : Constant
    Bit rate : 7 712 kb/s
    Nominal bit rate : 10 000 kb/s
    Width : 1 920 pixels
    Height : 800 pixels
    Display aspect ratio : 2.40:1
    Frame rate mode : Constant
    Frame rate : 23.976 (24000/1001) FPS
    Color space : YUV
    Chroma subsampling : 4:2:0
    Bit depth : 8 bits
    Scan type : Progressive
    Bits/(Pixel*Frame) : 0.209
    Stream size : 5.51 GiB (88%)
    Language : English
    Default : Yes
    Forced : No
    Color range : Limited
    Color primaries : BT.709
    Transfer characteristics : BT.709
    Matrix coefficients : BT.709

    Audio #1
    ID : 2
    Format : E-AC-3
    Format/Info : Enhanced AC-3
    Commercial name : Dolby Digital Plus
    Codec ID : A_EAC3
    Duration : 1 h 42 min
    Bit rate mode : Constant
    Bit rate : 640 kb/s
    Channel(s) : 6 channels
    Channel layout : L R C LFE Ls Rs
    Sampling rate : 48.0 kHz
    Frame rate : 31.250 FPS (1536 SPF)
    Compression mode : Lossy
    Stream size : 468 MiB (7%)
    Title : ѧ E-AC-3
    Language : English
    Service kind : Complete Main
    Default : No
    Forced : No

    Audio #2
    ID : 3
    Format : AAC LC
    Format/Info : Advanced Audio Codec Low Complexity
    Codec ID : A_AAC-2
    Duration : 1 h 42 min
    Bit rate : 372 kb/s
    Channel(s) : 6 channels
    Channel layout : C L R Ls Rs LFE
    Sampling rate : 48.0 kHz
    Frame rate : 46.875 FPS (1024 SPF)
    Compression mode : Lossy
    Stream size : 272 MiB (4%)
    Title : AAC5.1
    Language : Thai
    Default : Yes
    Forced : No

    Text #1
    ID : 4
    Format : UTF-8
    Codec ID : S_TEXT/UTF8
    Codec ID/Info : UTF-8 Plain Text
    Duration : 1 h 33 min
    Bit rate : 52 b/s
    Count of elements : 1423
    Stream size : 36.4 KiB (0%)
    Language : English
    Default : No
    Forced : No

    Text #2
    ID : 5
    Format : UTF-8
    Codec ID : S_TEXT/UTF8
    Codec ID/Info : UTF-8 Plain Text
    Duration : 1 h 38 min
    Bit rate : 69 b/s
    Count of elements : 1174
    Stream size : 50.0 KiB (0%)
    Language : Arabic
    Default : No
    Forced : No

    Text #3
    ID : 6
    Format : UTF-8
    Codec ID : S_TEXT/UTF8
    Codec ID/Info : UTF-8 Plain Text
    Duration : 1 h 38 min
    Bit rate : 35 b/s
    Count of elements : 1166
    Stream size : 26.0 KiB (0%)
    Title : European
    Language : Catalan
    Default : No
    Forced : No

    Text #4
    ID : 7
    Format : UTF-8
    Codec ID : S_TEXT/UTF8
    Codec ID/Info : UTF-8 Plain Text
    Duration : 1 h 38 min
    Bit rate : 38 b/s
    Count of elements : 1181
    Stream size : 27.8 KiB (0%)
    Language : Czech
    Default : No
    Forced : No

    Text #5
    ID : 8
    Format : UTF-8
    Codec ID : S_TEXT/UTF8
    Codec ID/Info : UTF-8 Plain Text
    Duration : 1 h 38 min
    Bit rate : 39 b/s
    Count of elements : 1172
    Stream size : 28.4 KiB (0%)
    Language : Danish
    Default : No
    Forced : No

    Text #6
    ID : 9
    Format : UTF-8
    Codec ID : S_TEXT/UTF8
    Codec ID/Info : UTF-8 Plain Text
    Duration : 1 h 38 min
    Bit rate : 40 b/s
    Count of elements : 1146
    Stream size : 29.5 KiB (0%)
    Language : German
    Default : No
    Forced : No

    Text #7
    ID : 10
    Format : UTF-8
    Codec ID : S_TEXT/UTF8
    Codec ID/Info : UTF-8 Plain Text
    Duration : 1 h 38 min
    Bit rate : 71 b/s
    Count of elements : 1158
    Stream size : 51.6 KiB (0%)
    Language : Greek
    Default : No
    Forced : No

    Text #8
    ID : 11
    Format : UTF-8
    Codec ID : S_TEXT/UTF8
    Codec ID/Info : UTF-8 Plain Text
    Duration : 1 h 38 min
    Bit rate : 39 b/s
    Count of elements : 1182
    Stream size : 28.4 KiB (0%)
    Title : Latin American
    Language : Spanish
    Default : No
    Forced : No

    Text #9
    ID : 12
    Format : UTF-8
    Codec ID : S_TEXT/UTF8
    Codec ID/Info : UTF-8 Plain Text
    Duration : 1 h 38 min
    Bit rate : 36 b/s
    Count of elements : 1161
    Stream size : 26.3 KiB (0%)
    Title : European
    Language : Basque
    Default : No
    Forced : No

    Text #10
    ID : 13
    Format : UTF-8
    Codec ID : S_TEXT/UTF8
    Codec ID/Info : UTF-8 Plain Text
    Duration : 1 h 38 min
    Bit rate : 36 b/s
    Count of elements : 1174
    Stream size : 26.3 KiB (0%)
    Language : Finnish
    Default : No
    Forced : No

    Text #11
    ID : 14
    Format : UTF-8
    Codec ID : S_TEXT/UTF8
    Codec ID/Info : UTF-8 Plain Text
    Duration : 1 h 38 min
    Bit rate : 41 b/s
    Count of elements : 1134
    Stream size : 30.3 KiB (0%)
    Language : fil
    Default : No
    Forced : No

    Text #12
    ID : 15
    Format : UTF-8
    Codec ID : S_TEXT/UTF8
    Codec ID/Info : UTF-8 Plain Text
    Duration : 1 h 38 min
    Bit rate : 38 b/s
    Count of elements : 1110
    Stream size : 27.7 KiB (0%)
    Language : French
    Default : No
    Forced : No

    Text #13
    ID : 16
    Format : UTF-8
    Codec ID : S_TEXT/UTF8
    Codec ID/Info : UTF-8 Plain Text
    Duration : 1 h 33 min
    Bit rate : 45 b/s
    Count of elements : 1189
    Stream size : 31.3 KiB (0%)
    Title : Canadian
    Language : French
    Default : No
    Forced : No

    Text #14
    ID : 17
    Format : UTF-8
    Codec ID : S_TEXT/UTF8
    Codec ID/Info : UTF-8 Plain Text
    Duration : 1 h 38 min
    Bit rate : 35 b/s
    Count of elements : 1179
    Stream size : 25.6 KiB (0%)
    Title : European
    Language : Galician
    Default : No
    Forced : No

    Text #15
    ID : 18
    Format : UTF-8
    Codec ID : S_TEXT/UTF8
    Codec ID/Info : UTF-8 Plain Text
    Duration : 1 h 38 min
    Bit rate : 66 b/s
    Count of elements : 1182
    Stream size : 48.4 KiB (0%)
    Language : Hebrew
    Default : No
    Forced : No

    Text #16
    ID : 19
    Format : UTF-8
    Codec ID : S_TEXT/UTF8
    Codec ID/Info : UTF-8 Plain Text
    Duration : 1 h 38 min
    Bit rate : 103 b/s
    Count of elements : 1181
    Stream size : 74.8 KiB (0%)
    Language : Hindi
    Default : No
    Forced : No

    Text #17
    ID : 20
    Format : UTF-8
    Codec ID : S_TEXT/UTF8
    Codec ID/Info : UTF-8 Plain Text
    Duration : 1 h 38 min
    Bit rate : 38 b/s
    Count of elements : 1084
    Stream size : 28.1 KiB (0%)
    Language : Hungarian
    Default : No
    Forced : No

    Text #18
    ID : 21
    Format : UTF-8
    Codec ID : S_TEXT/UTF8
    Codec ID/Info : UTF-8 Plain Text
    Duration : 1 h 38 min
    Bit rate : 39 b/s
    Count of elements : 1183
    Stream size : 28.2 KiB (0%)
    Language : Indonesian
    Default : No
    Forced : No

    Text #19
    ID : 22
    Format : UTF-8
    Codec ID : S_TEXT/UTF8
    Codec ID/Info : UTF-8 Plain Text
    Duration : 1 h 38 min
    Bit rate : 37 b/s
    Count of elements : 1178
    Stream size : 26.9 KiB (0%)
    Language : Italian
    Default : No
    Forced : No

    Text #20
    ID : 23
    Format : UTF-8
    Codec ID : S_TEXT/UTF8
    Codec ID/Info : UTF-8 Plain Text
    Duration : 1 h 38 min
    Bit rate : 34 b/s
    Count of elements : 1081
    Stream size : 25.0 KiB (0%)
    Language : Japanese
    Default : No
    Forced : No

    Text #21
    ID : 24
    Format : UTF-8
    Codec ID : S_TEXT/UTF8
    Codec ID/Info : UTF-8 Plain Text
    Duration : 1 h 38 min
    Bit rate : 111 b/s
    Count of elements : 1171
    Stream size : 80.3 KiB (0%)
    Language : Kannada
    Default : No
    Forced : No

    Text #22
    ID : 25
    Format : UTF-8
    Codec ID : S_TEXT/UTF8
    Codec ID/Info : UTF-8 Plain Text
    Duration : 1 h 38 min
    Bit rate : 45 b/s
    Count of elements : 1182
    Stream size : 32.8 KiB (0%)
    Language : Korean
    Default : No
    Forced : No

    Text #23
    ID : 26
    Format : UTF-8
    Codec ID : S_TEXT/UTF8
    Codec ID/Info : UTF-8 Plain Text
    Duration : 1 h 38 min
    Bit rate : 102 b/s
    Count of elements : 1184
    Stream size : 74.2 KiB (0%)
    Language : Malayalam
    Default : No
    Forced : No

    Text #24
    ID : 27
    Format : UTF-8
    Codec ID : S_TEXT/UTF8
    Codec ID/Info : UTF-8 Plain Text
    Duration : 1 h 38 min
    Bit rate : 37 b/s
    Count of elements : 1177
    Stream size : 26.9 KiB (0%)
    Language : Malay
    Default : No
    Forced : No

    Text #25
    ID : 28
    Format : UTF-8
    Codec ID : S_TEXT/UTF8
    Codec ID/Info : UTF-8 Plain Text
    Duration : 1 h 38 min
    Bit rate : 38 b/s
    Count of elements : 1179
    Stream size : 27.5 KiB (0%)
    Language : Norwegian Bokmal
    Default : No
    Forced : No

    Text #26
    ID : 29
    Format : UTF-8
    Codec ID : S_TEXT/UTF8
    Codec ID/Info : UTF-8 Plain Text
    Duration : 1 h 38 min
    Bit rate : 37 b/s
    Count of elements : 1170
    Stream size : 27.4 KiB (0%)
    Language : Dutch
    Default : No
    Forced : No

    Text #27
    ID : 30
    Format : UTF-8
    Codec ID : S_TEXT/UTF8
    Codec ID/Info : UTF-8 Plain Text
    Duration : 1 h 38 min
    Bit rate : 33 b/s
    Count of elements : 1140
    Stream size : 24.3 KiB (0%)
    Language : Polish
    Default : No
    Forced : No

    Text #28
    ID : 31
    Format : UTF-8
    Codec ID : S_TEXT/UTF8
    Codec ID/Info : UTF-8 Plain Text
    Duration : 1 h 38 min
    Bit rate : 38 b/s
    Count of elements : 1156
    Stream size : 27.5 KiB (0%)
    Language : Portuguese
    Default : No
    Forced : No

    Text #29
    ID : 32
    Format : UTF-8
    Codec ID : S_TEXT/UTF8
    Codec ID/Info : UTF-8 Plain Text
    Duration : 1 h 38 min
    Bit rate : 40 b/s
    Count of elements : 1181
    Stream size : 29.0 KiB (0%)
    Title : Brazilian
    Language : Portuguese
    Default : No
    Forced : No

    Text #30
    ID : 33
    Format : UTF-8
    Codec ID : S_TEXT/UTF8
    Codec ID/Info : UTF-8 Plain Text
    Duration : 1 h 38 min
    Bit rate : 43 b/s
    Count of elements : 1172
    Stream size : 31.1 KiB (0%)
    Language : Romanian
    Default : No
    Forced : No

    Text #31
    ID : 34
    Format : UTF-8
    Codec ID : S_TEXT/UTF8
    Codec ID/Info : UTF-8 Plain Text
    Duration : 1 h 38 min
    Bit rate : 67 b/s
    Count of elements : 1184
    Stream size : 48.7 KiB (0%)
    Language : Russian
    Default : No
    Forced : No

    Text #32
    ID : 35
    Format : UTF-8
    Codec ID : S_TEXT/UTF8
    Codec ID/Info : UTF-8 Plain Text
    Duration : 1 h 38 min
    Bit rate : 39 b/s
    Count of elements : 1175
    Stream size : 28.8 KiB (0%)
    Language : Swedish
    Default : No
    Forced : No

    Text #33
    ID : 36
    Format : UTF-8
    Codec ID : S_TEXT/UTF8
    Codec ID/Info : UTF-8 Plain Text
    Duration : 1 h 38 min
    Bit rate : 106 b/s
    Count of elements : 1185
    Stream size : 76.8 KiB (0%)
    Language : Tamil
    Default : No
    Forced : No

    Text #34
    ID : 37
    Format : UTF-8
    Codec ID : S_TEXT/UTF8
    Codec ID/Info : UTF-8 Plain Text
    Duration : 1 h 38 min
    Bit rate : 101 b/s
    Count of elements : 1176
    Stream size : 73.3 KiB (0%)
    Language : Telugu
    Default : No
    Forced : No

    Text #35
    ID : 38
    Format : UTF-8
    Codec ID : S_TEXT/UTF8
    Codec ID/Info : UTF-8 Plain Text
    Duration : 1 h 38 min
    Bit rate : 99 b/s
    Count of elements : 1184
    Stream size : 71.6 KiB (0%)
    Language : Thai
    Default : No
    Forced : No

    Text #36
    ID : 39
    Format : UTF-8
    Codec ID : S_TEXT/UTF8
    Codec ID/Info : UTF-8 Plain Text
    Duration : 1 h 38 min
    Bit rate : 40 b/s
    Count of elements : 1178
    Stream size : 28.9 KiB (0%)
    Language : Turkish
    Default : No
    Forced : No

    Text #37
    ID : 40
    Format : UTF-8
    Codec ID : S_TEXT/UTF8
    Codec ID/Info : UTF-8 Plain Text
    Duration : 1 h 38 min
    Bit rate : 66 b/s
    Count of elements : 1184
    Stream size : 48.3 KiB (0%)
    Title : Ukraine
    Language : Ukrainian
    Default : No
    Forced : No

    Text #38
    ID : 41
    Format : UTF-8
    Codec ID : S_TEXT/UTF8
    Codec ID/Info : UTF-8 Plain Text
    Duration : 1 h 38 min
    Bit rate : 49 b/s
    Count of elements : 1181
    Stream size : 35.9 KiB (0%)
    Title : Vietnam
    Language : Vietnamese
    Default : No
    Forced : No

    Text #39
    ID : 42
    Format : UTF-8
    Codec ID : S_TEXT/UTF8
    Codec ID/Info : UTF-8 Plain Text
    Duration : 1 h 38 min
    Bit rate : 39 b/s
    Count of elements : 1182
    Stream size : 28.3 KiB (0%)
    Title : Traditional
    Language : Chinese
    Default : No
    Forced : No

    Text #40
    ID : 43
    Format : PGS
    Muxing mode : zlib
    Codec ID : S_HDMV/PGS
    Codec ID/Info : Picture based subtitle format used on BDs/HD-DVDs
    Duration : 1 h 38 min
    Bit rate : 23.1 kb/s
    Count of elements : 2368
    Stream size : 16.3 MiB (0%)
    Title : PGS
    Language : Thai
    Default : No
    Forced : No

    Text #41
    ID : 44
    Format : PGS
    Muxing mode : zlib
    Codec ID : S_HDMV/PGS
    Codec ID/Info : Picture based subtitle format used on BDs/HD-DVDs
    Duration : 1 h 38 min
    Bit rate : 23.1 kb/s
    Count of elements : 2368
    Stream size : 16.3 MiB (0%)
    Title : ͧ PGS
    Language : Thai
    Default : Yes
    Forced : No






    Download:filecondo
    http://www.filecondo.com/dl.php?f=82ed6d1OrUOF
    Download:cornfile
    https://www.cornfile.com/y4079s8eba13

  2. The Following 8 Users Say Thank You to Duckload.us For This Useful Post:

    bigbang06 (08-29-2022), jackjangri (08-29-2022), Jodz14 (08-28-2022), masaomi (08-29-2022), mettset (09-01-2022), noi54 (08-28-2022), sawara (08-28-2022), Wesker_TOT (08-28-2022)

  3. #2
    Senior Member
    Ѥ
    Dec 2013
    ʵ
    4,172
    Thanks
    6,072
    Thanked 0 Times in 0 Posts
    ͺسѺ...

  4. #3
    Senior Member
    Ѥ
    Dec 2013
    ʵ
    698
    Thanks
    648
    Thanked 0 Times in 0 Posts
    ͺسѺ

  5. #4
    Junior Member ٻǹ petpina2010
    Ѥ
    Jun 2020
    ʵ
    28
    Thanks
    0
    Thanked 0 Times in 0 Posts
    ͺسѺ

  6. #5
    I'm donate !
    Ѥ
    Jun 2011
    ʵ
    568
    Thanks
    717
    Thanked 40 Times in 29 Posts
    ͺسѺ...

+ ͺѺз

šз

Users Browsing this Thread

㹢й 1 ҹ١з. (0 Ҫԡ 1 )

     

ʵͤ

  • ҹ ö 駡з
  • ҹ ö ͺз
  • ҹ ö
  • ҹ ö 䢢ͤʵ