+ ตอบกลับกระทู้
สรุปผลการค้นหา 1 ถึง 4 จากทั้งหมด 4
  1. #1
    Administrators รูปส่วนตัว Duckload.us
    สมัครเมื่อ
    Dec 2010
    โพสต์
    139,860
    Thanks
    7
    Thanked 146,378 Times in 63,686 Posts

    Thumbs up [จีน] The Final Blade (2018) องครักษ์ดาบสุดท้าย [พากย์:จีน/ไทย มาสเตอร์][SUB:ไทย][1080p]



    มีองครักษ์เสื้อแพรกลุ่มหนึ่งที่คอยปกป้องจอกไก่มาตั ้งแต่ราชวงค์หมิง ภายหลังจอกถูกขโมยไป จนถึงยุคปัจจุบันจอกได้ปรากฏขึ้นอีกครั้ง กลุ่มโจรจึงได้วางแผนปล้นมัน แต่ก็ถูกองครักษ์เสื้อแพรคนปัจจุบันขัดขวาง ม่อสุนเด็กหนุ่มผู้เคยได้รับความช่วยเหลือจากองครักษ ์เสื้อแพร เขาบังเอิญได้เจอองครักษ์เสื้อแพรคนปัจจุบันและขอให้ รับเขาเป็นศิษย์ กลุ่มโจรจับตัวอาจารย์เขาไปเพื่อแลกกับจอกไก่ ม่อสุนในฐานะทายาทองครักษ์เสื้อแพรจึงต้องออกไปทำหน้ าที่

    Format : Matroska
    Format version : Version 4
    File size : 3.64 GiB
    Duration : 1 h 31 min
    Overall bit rate : 5 696 kb/s
    Movie name : The Final Blade (2018)_©GOLD CUP™_WWW.TT-TORRENT.COM

    Video #1
    ID : 1
    Format : AVC
    Format/Info : Advanced Video Codec
    Format profile : [email protected]
    Format settings : CABAC / 1 Ref Frames
    Format settings, CABAC : Yes
    Format settings, Reference : 1 frame
    Format settings, GOP : M=1, N=25
    Codec ID : V_MPEG4/ISO/AVC
    Duration : 1 h 31 min
    Bit rate mode : Constant
    Bit rate : 2 715 kb/s
    Width : 1 920 pixels
    Height : 850 pixels
    Display aspect ratio : 2.25:1
    Frame rate mode : Constant
    Frame rate : 25.000 FPS
    Color space : YUV
    Chroma subsampling : 4:2:0
    Bit depth : 8 bits
    Scan type : Progressive
    Bits/(Pixel*Frame) : 0.067
    Stream size : 1.73 GiB (48%)
    Title : The Final Blade (2018) Chi
    Language : Chinese
    Default : Yes
    Forced : No

    Video #2
    ID : 2
    Format : AVC
    Format/Info : Advanced Video Codec
    Format profile : [email protected]
    Format settings : CABAC / 1 Ref Frames
    Format settings, CABAC : Yes
    Format settings, Reference : 1 frame
    Format settings, GOP : M=1, N=25
    Codec ID : V_MPEG4/ISO/AVC
    Duration : 1 h 31 min
    Bit rate mode : Constant
    Bit rate : 2 215 kb/s
    Width : 1 920 pixels
    Height : 850 pixels
    Display aspect ratio : 2.25:1
    Frame rate mode : Constant
    Frame rate : 25.000 FPS
    Color space : YUV
    Chroma subsampling : 4:2:0
    Bit depth : 8 bits
    Scan type : Progressive
    Bits/(Pixel*Frame) : 0.054
    Stream size : 1.41 GiB (39%)
    Title : The Final Blade (2018) THi
    Language : Thai
    Default : Yes
    Forced : No

    Audio #1
    ID : 3
    Format : AAC LC
    Format/Info : Advanced Audio Codec Low Complexity
    Codec ID : A_AAC-2
    Duration : 1 h 31 min
    Bit rate : 384 kb/s
    Channel(s) : 6 channels
    Channel layout : C L R Ls Rs LFE
    Sampling rate : 48.0 kHz
    Frame rate : 46.875 FPS (1024 SPF)
    Compression mode : Lossy
    Stream size : 252 MiB (7%)
    Title : Th.AAC_384 kbs.6 channels
    Language : Thai
    Default : Yes
    Forced : No

    Audio #2
    ID : 4
    Format : AAC LC
    Format/Info : Advanced Audio Codec Low Complexity
    Codec ID : A_AAC-2
    Duration : 1 h 31 min
    Bit rate : 384 kb/s
    Channel(s) : 6 channels
    Channel layout : C L R Ls Rs LFE
    Sampling rate : 48.0 kHz
    Frame rate : 46.875 FPS (1024 SPF)
    Compression mode : Lossy
    Stream size : 251 MiB (7%)
    Title : Chi.AAC_384 kbs.6 channels
    Language : Chinese
    Default : Yes
    Forced : No





    Cr : NongZEZA~

    Download:filecondo
    http://www.filecondo.com/dl.php?f=He587e1OuLyc
    Download:cornfile
    https://www.cornfile.com/js0au0n7krnp

  2. The Following 7 Users Say Thank You to Duckload.us For This Useful Post:

    Jodz14 (09-05-2022), lonin (09-06-2022), masaomi (09-12-2022), noi54 (09-05-2022), sawara (09-13-2022), Timarat (09-05-2022), Wesker_TOT (09-05-2022)

  3. #2
    Senior Member
    สมัครเมื่อ
    Dec 2013
    โพสต์
    4,172
    Thanks
    6,072
    Thanked 0 Times in 0 Posts
    ขอบคุณครับ...

  4. #3
    Senior Member
    สมัครเมื่อ
    Dec 2013
    โพสต์
    698
    Thanks
    648
    Thanked 0 Times in 0 Posts
    ขอบคุณครับ

  5. #4
    Senior Member
    สมัครเมื่อ
    Jun 2012
    โพสต์
    1,605
    Thanks
    0
    Thanked 1 Time in 1 Post
    ขอบคุณครับ

+ ตอบกลับกระทู้

ข้อมูลกระทู้

Users Browsing this Thread

ในขณะนี้มี 1 ท่านดูกระทู้อยู่. (0 สมาชิกและ 1 ผู้เยี่ยมชม)

     

กฎการโพสต์ข้อความ

  • ท่าน ไม่สามารถ ตั้งกระทู้ใหม่ได้
  • ท่าน ไม่สามารถ ตอบกระทู้ได้
  • ท่าน ไม่สามารถ แนบไฟล์ได้
  • ท่าน ไม่สามารถ แก้ไขข้อความโพสต์ได้
  • BB code สถานะ เปิด
  • Smilies สถานะ เปิด
  • [IMG] สถานะ เปิด
  • HTML สถานะ ปิด