+ ͺѺз
ػšä 1 ֧ 4 ҡ 4
  1. #1
    Administrators ٻǹ Duckload.us
    Ѥ
    Dec 2010
    ʵ
    139,860
    Thanks
    7
    Thanked 146,381 Times in 63,686 Posts

    Thumbs up [Թ]-˭ԧ (2022)Gangubai.Kathiawadi.APP-DL.DDP5.1[1080i/p]-.H.264-[Netflix (web-dl)]-[ҡ:5.1 + MULTI AUD][SUB:+ѧ]



    General
    Unique ID : 305627409520044438070050042808792939648 (0xE5EDB2AEF309667469BD5AB338C27C80)
    Complete name : H:\NF MOVIE HINDI\Gangubai Kathiawadi (2022) ˭ԧ\Gangubai.Kathiawadi.2022.1080p. [email protected]
    Format : Matroska
    Format version : Version 4 / Version 2
    File size : 8.46 GiB
    Duration : 2 h 33 min
    Overall bit rate mode : Variable
    Overall bit rate : 7 906 kb/s
    Movie name : [email protected]
    Encoded date : UTC 2022-08-25 10:30:07
    Writing application : mkvmerge v63.0.0 ('Everything') 64-bit
    Writing library : libebml v1.4.2 + libmatroska v1.6.4
    Cover : Yes
    Attachments : cover.png

    Video
    ID : 1
    Format : AVC
    Format/Info : Advanced Video Codec
    Format profile : [email protected]
    Format settings, CABAC : Yes
    Format settings, RefFrames : 4 frames
    Codec ID : V_MPEG4/ISO/AVC
    Duration : 2 h 33 min
    Bit rate mode : Variable
    Bit rate : 5 901 kb/s
    Maximum bit rate : 20.0 Mb/s
    Width : 1 920 pixels
    Height : 1 080 pixels
    Display aspect ratio : 16:9
    Frame rate mode : Constant
    Frame rate : 24.000 FPS
    Color space : YUV
    Chroma subsampling : 4:2:0
    Bit depth : 8 bits
    Scan type : Progressive
    Bits/(Pixel*Frame) : 0.119
    Stream size : 6.31 GiB (75%)
    Writing library : x264 core 148 r2727 7d026e8
    Encoding settings : cabac=1 / ref=4 / deblock=1:0:0 / analyse=0x3:0x111 / me=umh / subme=10 / psy=1 / psy_rd=1.00:0.00 / mixed_ref=1 / me_range=120 / chroma_me=1 / trellis=2 / 8x8dct=1 / cqm=0 / deadzone=21,11 / fast_pskip=1 / chroma_qp_offset=-2 / threads=8 / lookahead_threads=2 / sliced_threads=0 / nr=0 / decimate=1 / interlaced=0 / bluray_compat=0 / stitchable=1 / constrained_intra=0 / bframes=16 / b_pyramid=2 / b_adapt=2 / b_bias=0 / direct=3 / weightb=1 / open_gop=0 / weightp=2 / keyint=240 / keyint_min=121 / scenecut=0 / intra_refresh=0 / rc_lookahead=240 / rc=crf / mbtree=1 / crf=21.0 / qcomp=0.50 / qpmin=6 / qpmax=51 / qpstep=4 / vbv_maxrate=20000 / vbv_bufsize=25000 / crf_max=0.0 / nal_hrd=vbr / filler=0 / ip_ratio=1.40 / aq=1:0.80
    Language : Hindi
    Default : Yes
    Forced : No

    Audio #1
    ID : 2
    Format : E-AC-3
    Format/Info : Enhanced Audio Coding 3
    Format settings, Endianness : Big
    Codec ID : A_EAC3
    Duration : 2 h 33 min
    Bit rate mode : Constant
    Bit rate : 640 kb/s
    Channel(s) : 6 channels
    Channel positions : Front: L C R, Side: L R, LFE
    Sampling rate : 48.0 kHz
    Frame rate : 187.500 FPS (256 SPF)
    Compression mode : Lossy
    Stream size : 701 MiB (8%)
    Title : Thai-DDP 5.1
    Language : Thai
    Service kind : Complete Main
    Default : Yes
    Forced : Yes

    Audio #2
    ID : 3
    Format : E-AC-3
    Format/Info : Enhanced Audio Coding 3
    Format settings, Endianness : Big
    Codec ID : A_EAC3
    Duration : 2 h 33 min
    Bit rate mode : Constant
    Bit rate : 640 kb/s
    Channel(s) : 6 channels
    Channel positions : Front: L C R, Side: L R, LFE
    Sampling rate : 48.0 kHz
    Frame rate : 187.500 FPS (256 SPF)
    Compression mode : Lossy
    Stream size : 700 MiB (8%)
    Title : Hindi-DDP 5.1
    Language : Hindi
    Service kind : Complete Main
    Default : Yes
    Forced : No

    Audio #3
    ID : 4
    Format : E-AC-3
    Format/Info : Enhanced Audio Coding 3
    Format settings, Endianness : Big
    Codec ID : A_EAC3
    Duration : 2 h 33 min
    Bit rate mode : Constant
    Bit rate : 640 kb/s
    Channel(s) : 6 channels
    Channel positions : Front: L C R, Side: L R, LFE
    Sampling rate : 48.0 kHz
    Frame rate : 187.500 FPS (256 SPF)
    Compression mode : Lossy
    Stream size : 701 MiB (8%)
    Title : Telugu-DDP 5.1
    Language : Telugu
    Service kind : Complete Main
    Default : Yes
    Forced : No

    Text #1
    ID : 5
    Format : PGS
    Muxing mode : zlib
    Codec ID : S_HDMV/PGS
    Codec ID/Info : Picture based subtitle format used on BDs/HD-DVDs
    Duration : 2 h 32 min
    Bit rate : 40.7 kb/s
    Count of elements : 4258
    Stream size : 44.5 MiB (1%)
    Title : Thai-PGS NETFLIX [Angsana]
    Language : Thai
    Default : Yes
    Forced : No

    Text #2
    ID : 6
    Format : PGS
    Muxing mode : zlib
    Codec ID : S_HDMV/PGS
    Codec ID/Info : Picture based subtitle format used on BDs/HD-DVDs
    Duration : 2 h 32 min
    Bit rate : 58.2 kb/s
    Count of elements : 4258
    Stream size : 63.7 MiB (1%)
    Title : Thai-PGS From Original NETFLIX
    Language : Thai
    Default : Yes
    Forced : No

    Text #3
    ID : 7
    Format : VobSub
    Muxing mode : zlib
    Codec ID : S_VOBSUB
    Codec ID/Info : Picture based subtitle format used on DVDs
    Duration : 2 h 32 min
    Bit rate : 9 732 b/s
    Count of elements : 2110
    Stream size : 10.7 MiB (0%)
    Title : Thai-VOBSUB NETFLIX [Angsana]
    Language : Thai
    Default : Yes
    Forced : No

    Text #4
    ID : 8
    Format : VobSub
    Muxing mode : zlib
    Codec ID : S_VOBSUB
    Codec ID/Info : Picture based subtitle format used on DVDs
    Duration : 2 h 32 min
    Bit rate : 11.4 kb/s
    Count of elements : 2129
    Stream size : 12.5 MiB (0%)
    Title : Thai-VOBSUB From Original NETFLIX
    Language : Thai
    Default : Yes
    Forced : No

    Text #5
    ID : 9
    Format : PGS
    Muxing mode : zlib
    Codec ID : S_HDMV/PGS
    Codec ID/Info : Picture based subtitle format used on BDs/HD-DVDs
    Duration : 2 h 28 min
    Bit rate : 32.6 kb/s
    Count of elements : 4228
    Stream size : 34.7 MiB (0%)
    Title : English-PGS
    Language : English
    Default : Yes
    Forced : No

    Text #6
    ID : 10
    Format : UTF-8
    Codec ID : S_TEXT/UTF8
    Codec ID/Info : UTF-8 Plain Text
    Duration : 2 h 32 min
    Bit rate : 139 b/s
    Count of elements : 2129
    Stream size : 156 KiB (0%)
    Title : Thai-SRT
    Language : Thai
    Default : Yes
    Forced : No

    Text #7
    ID : 11
    Format : UTF-8
    Codec ID : S_TEXT/UTF8
    Codec ID/Info : UTF-8 Plain Text
    Duration : 2 h 28 min
    Bit rate : 57 b/s
    Count of elements : 2114
    Stream size : 63.0 KiB (0%)
    Title : English-SRT
    Language : English
    Default : Yes
    Forced : No

















    Download:filecondo
    Gangubai_Kathiawadi.2022_GOLD_CUP.mkv
    http://www.filecondo.com/dl.php?f=Sbe0da1OuRsn

    [email protected] - 8.5 GB
    Download:cornfile
    Gangubai Kathiawadi.2022_GOLD CUP.mkv - 4.7 GB
    [email protected] - 8.5 GB

  2. The Following 4 Users Say Thank You to Duckload.us For This Useful Post:

    Jodz14 (09-05-2022), noi54 (09-05-2022), sawara (09-09-2022), Wesker_TOT (09-05-2022)

  3. #2
    Senior Member
    Ѥ
    Dec 2013
    ʵ
    4,172
    Thanks
    6,072
    Thanked 0 Times in 0 Posts
    ͺسѺ...

  4. #3
    Senior Member
    Ѥ
    Jul 2012
    ʵ
    8,134
    Thanks
    0
    Thanked 0 Times in 0 Posts
    ͺسҡ

  5. #4
    Senior Member
    Ѥ
    Dec 2013
    ʵ
    698
    Thanks
    648
    Thanked 0 Times in 0 Posts
    ͺسѺ

+ ͺѺз

šз

Users Browsing this Thread

㹢й 1 ҹ١з. (0 Ҫԡ 1 )

     

ʵͤ

  • ҹ ö 駡з
  • ҹ ö ͺз
  • ҹ ö
  • ҹ ö 䢢ͤʵ