+ ตอบกลับกระทู้
สรุปผลการค้นหา 1 ถึง 4 จากทั้งหมด 4
  1. #1
    Administrators รูปส่วนตัว Duckload.us
    สมัครเมื่อ
    Dec 2010
    โพสต์
    150,746
    Thanks
    7
    Thanked 157,985 Times in 68,981 Posts

    Lightbulb [เกาหลี]-Rookie Cops (2022) Ep.01-16 จบ [พากย์ไทย-ซับไทย]-WEB-DL.H.264.1080p. [Hi-def rip from Master]-[พากย์ไทย บรรยายไทย]



    
    ซึงฮยอนมีปัญหาขัดแย้งกับรุ่นพี่ในหน่วยฝึก เมื่อตำรวจฝึกหัดคนหนึ่งถอนตัวออกไป อึนกังจึงได้เข้าเรียนที่มหาวิทยาลัยตำรวจตามที่ตั้ง ใจ




    Video
    ID : 1
    Format : AVC
    Format/Info : Advanced Video Codec
    Format profile : High@L4
    Format settings : CABAC / 4 Ref Frames
    Format settings, CABAC : Yes
    Format settings, Reference : 4 frames
    Codec ID : V_MPEG4/ISO/AVC
    Duration : 53 min 48 s
    Bit rate : 3 300 kb/s
    Width : 1 920 pixels
    Height : 1 080 pixels
    Display aspect ratio : 16:9
    Frame rate mode : Constant
    Frame rate : 23.976 (24000/1001) FPS
    Color space : YUV
    Chroma subsampling : 4:2:0
    Bit depth : 8 bits
    Scan type : Progressive
    Bits/(Pixel*Frame) : 0.066
    Stream size : 1.23 GiB (93%)
    Writing library : x264 core 155 r2917+2 f192430
    Encoding settings : cabac=1 / ref=4 / deblock=1:0:0 / analyse=0x3:0x113 / me=hex / subme=8 / psy=1 / psy_rd=1.00:0.00 / mixed_ref=1 / me_range=16 / chroma_me=1 / trellis=2 / 8x8dct=1 / cqm=0 / deadzone=21,11 / fast_pskip=1 / chroma_qp_offset=-2 / threads=10 / lookahead_threads=1 / sliced_threads=0 / nr=0 / decimate=1 / interlaced=0 / bluray_compat=0 / stitchable=1 / constrained_intra=0 / bframes=3 / b_pyramid=2 / b_adapt=2 / b_bias=0 / direct=3 / weightb=1 / open_gop=0 / weightp=2 / keyint=48 / keyint_min=25 / scenecut=0 / intra_refresh=0 / rc_lookahead=48 / rc=2pass / mbtree=1 / bitrate=3300 / ratetol=1.0 / qcomp=0.60 / qpmin=0 / qpmax=69 / qpstep=4 / cplxblur=20.0 / qblur=0.5 / vbv_maxrate=4950 / vbv_bufsize=6600 / nal_hrd=none / filler=0 / ip_ratio=1.40 / aq=3:1.00
    Default : Yes
    Forced : No
    Color range : Limited
    Color primaries : BT.709
    Transfer characteristics : BT.709
    Matrix coefficients : BT.709

    Audio #1
    ID : 2
    Format : AAC LC
    Format/Info : Advanced Audio Codec Low Complexity
    Codec ID : A_AAC-2
    Duration : 53 min 48 s
    Bit rate : 128 kb/s
    Channel(s) : 2 channels
    Channel layout : L R
    Sampling rate : 48.0 kHz
    Frame rate : 46.875 FPS (1024 SPF)
    Compression mode : Lossy
    Stream size : 49.3 MiB (4%)
    Title : Hotstar
    Language : Thai
    Default : Yes
    Forced : No

    Audio #2
    ID : 3
    Format : AAC LC
    Format/Info : Advanced Audio Codec Low Complexity
    Codec ID : A_AAC-2
    Duration : 53 min 48 s
    Bit rate : 128 kb/s
    Channel(s) : 2 channels
    Channel layout : L R
    Sampling rate : 48.0 kHz
    Frame rate : 46.875 FPS (1024 SPF)
    Compression mode : Lossy
    Stream size : 49.4 MiB (4%)
    Title : Hotstar
    Language : Korean
    Default : No
    Forced : No

    Text
    ID : 4
    Format : UTF-8
    Codec ID : S_TEXT/UTF8
    Codec ID/Info : UTF-8 Plain Text
    Duration : 53 min 32 s
    Bit rate : 153 b/s
    Frame rate : 0.273 FPS
    Count of elements : 876
    Stream size : 60.1 KiB (0%)
    Title : Hotstar
    Language : Thai
    Default : Yes
    Forced : No


    Rookie.Cops.2022.S01E16.1080p.Hotstar.WEB-DL.H264.AAC-(Spark751).mkv
    http://www.filecondo.com/dl.php?f=B5aafb1OscsU

    Rookie.Cops.2022.S01E15.1080p.Hotstar.WEB-DL.H264.AAC-(Spark751).mkv
    http://www.filecondo.com/dl.php?f=259e7c1Oscos

    Rookie.Cops.2022.S01E14.1080p.Hotstar.WEB-DL.H264.AAC-(Spark751).mkv
    http://www.filecondo.com/dl.php?f=G43c4a1Oscka

    Rookie.Cops.2022.S01E13.1080p.Hotstar.WEB-DL.H264.AAC-(Spark751).mkv
    http://www.filecondo.com/dl.php?f=J182b91OschO

    Rookie.Cops.2022.S01E12.1080p.Hotstar.WEB-DL.H264.AAC-(Spark751).mkv
    http://www.filecondo.com/dl.php?f=keeb261Osceq

    Rookie.Cops.2022.S01E11.1080p.Hotstar.WEB-DL.H264.AAC-(Spark751).mkv
    http://www.filecondo.com/dl.php?f=zaa9db1Oscbf

    Rookie.Cops.2022.S01E10.1080p.Hotstar.WEB-DL.H264.AAC-(Spark751).mkv
    http://www.filecondo.com/dl.php?f=Z1f5401Osc6D

    Rookie.Cops.2022.S01E09.1080p.Hotstar.WEB-DL.H264.AAC-(Spark751).mkv
    http://www.filecondo.com/dl.php?f=r20e7f1Osc3D

    Rookie.Cops.2022.S01E08.1080p.Hotstar.WEB-DL.H264.AAC-(Spark751).mkv
    http://www.filecondo.com/dl.php?f=ze76551Osc2H

    Rookie.Cops.2022.S01E07.1080p.Hotstar.WEB-DL.H264.AAC-(Spark751).mkv
    http://www.filecondo.com/dl.php?f=13f2481Osc1I

    Rookie.Cops.2022.S01E06.1080p.Hotstar.WEB-DL.H264.AAC-(Spark751).mkv
    http://www.filecondo.com/dl.php?f=wa00641Osc0K

    Rookie.Cops.2022.S01E05.1080p.Hotstar.WEB-DL.H264.AAC-(Spark751).mkv
    http://www.filecondo.com/dl.php?f=0c710a1OsbZU

    Rookie.Cops.2022.S01E04.1080p.Hotstar.WEB-DL.H264.AAC-(Spark751).mkv
    http://www.filecondo.com/dl.php?f=W787ac1OsbYT

    Rookie.Cops.2022.S01E03.1080p.Hotstar.WEB-DL.H264.AAC-(Spark751).mkv
    http://www.filecondo.com/dl.php?f=Y8eb4e1OsbYk

    Rookie.Cops.2022.S01E02.1080p.Hotstar.WEB-DL.H264.AAC-(Spark751).mkv
    http://www.filecondo.com/dl.php?f=A294261OsbX3

    Rookie.Cops.2022.S01E01.1080p.Hotstar.WEB-DL.H264.AAC-(Spark751).mkv
    http://www.filecondo.com/dl.php?f=a3861b1OsbVf

  2. The Following User Says Thank You to Duckload.us For This Useful Post:

    whiteherbie (09-12-2022)

  3. #2
    Junior Member รูปส่วนตัว FonKikyo
    สมัครเมื่อ
    Jun 2018
    โพสต์
    22
    Thanks
    0
    Thanked 0 Times in 0 Posts

    Thumbs down

    ขอบคุณค่ะ เรื่องนี้สนุกค่ะ

  4. #3
    Senior Member
    สมัครเมื่อ
    Dec 2011
    โพสต์
    3,063
    Thanks
    636
    Thanked 0 Times in 0 Posts
    ขอบคุณค่ะ

  5. #4
    Senior Member
    สมัครเมื่อ
    Jul 2013
    โพสต์
    3,649
    Thanks
    0
    Thanked 0 Times in 0 Posts
    ขอบคุณครับ

+ ตอบกลับกระทู้

ข้อมูลกระทู้

Users Browsing this Thread

ในขณะนี้มี 1 ท่านดูกระทู้อยู่. (0 สมาชิกและ 1 ผู้เยี่ยมชม)

     

กฎการโพสต์ข้อความ

  • ท่าน ไม่สามารถ ตั้งกระทู้ใหม่ได้
  • ท่าน ไม่สามารถ ตอบกระทู้ได้
  • ท่าน ไม่สามารถ แนบไฟล์ได้
  • ท่าน ไม่สามารถ แก้ไขข้อความโพสต์ได้
  • BB code สถานะ เปิด
  • Smilies สถานะ เปิด
  • [IMG] สถานะ เปิด
  • HTML สถานะ ปิด