+ ตอบกลับกระทู้
สรุปผลการค้นหา 1 ถึง 8 จากทั้งหมด 8
  1. #1
    Administrators รูปส่วนตัว Duckload.us
    สมัครเมื่อ
    Dec 2010
    โพสต์
    139,860
    Thanks
    7
    Thanked 146,380 Times in 63,686 Posts

    Thumbs up [ญี่ปุ่น] Stigmatized Properties (2020) ไลฟ์ติดผี [พากย์:ญี่ปุ่น/ไทย มาสเตอร์][SUB:ไทย/อังกฤษ][1080p]



    เรื่องราวของ “ยามาโนะ ยามาเมะ” (คาเมนาชิ คาซึยะ) นักแสดงตลกที่ตัดสินใจอาศัยใน “สถานที่ที่เคยเกิดเหตุ” ตามเงื่อนไขของรายการโทรทัศน์ ในห้องนั้นเขาได้ถ่ายติด “อะไรบางอย่าง” ที่มีสีขาว ทำให้ยามาเมะยิ่งอยากได้ข้อมูล เขาจึงพยายามย้ายไปตามจุดต่างๆ ในห้อง ขณะที่รายการเริ่มตื่นเต้นมากขึ้น ยามาเนะก็ค่อยๆ โด่งดังขึ้นเรื่อยๆ เขากลับต้องไปพัวพันกับปรากฏการณ์แปลกๆ ทีละอย่าง และความน่ากลัวที่ไม่อาจจินตนาการได้ก็กำลังรอยามาเม ะอยู่

    Format : Matroska
    Format version : Version 4
    File size : 3.89 GiB
    Duration : 1 h 52 min
    Overall bit rate : 4 969 kb/s
    Movie name : Stigmatized Properties (2020)_©GOLD CUP™_WWW.TT-TORRENT.COM

    Video #1
    ID : 1
    Format : AVC
    Format/Info : Advanced Video Codec
    Format profile : [email protected]
    Format settings : CABAC / 1 Ref Frames
    Format settings, CABAC : Yes
    Format settings, Reference : 1 frame
    Format settings, GOP : M=1, N=25
    Codec ID : V_MPEG4/ISO/AVC
    Duration : 1 h 51 min
    Bit rate mode : Constant
    Bit rate : 1 432 kb/s
    Width : 1 920 pixels
    Height : 1 036 pixels
    Display aspect ratio : 1.85:1
    Frame rate mode : Constant
    Frame rate : 23.976 (24000/1001) FPS
    Color space : YUV
    Chroma subsampling : 4:2:0
    Bit depth : 8 bits
    Scan type : Progressive
    Bits/(Pixel*Frame) : 0.030
    Stream size : 1.12 GiB (29%)
    Title : Stigmatized Properties (2020)_©GOLD CUP™
    Language : Thai
    Default : Yes
    Forced : No

    Video #2
    ID : 2
    Format : AVC
    Format/Info : Advanced Video Codec
    Format profile : [email protected]
    Format settings : CABAC / 4 Ref Frames
    Format settings, CABAC : Yes
    Format settings, Reference : 4 frames
    Codec ID : V_MPEG4/ISO/AVC
    Duration : 1 h 51 min
    Bit rate : 3 000 kb/s
    Width : 1 920 pixels
    Height : 1 036 pixels
    Display aspect ratio : 1.85:1
    Frame rate mode : Constant
    Frame rate : 23.976 (23976/1000) FPS
    Color space : YUV
    Chroma subsampling : 4:2:0
    Bit depth : 8 bits
    Scan type : Progressive
    Bits/(Pixel*Frame) : 0.063
    Stream size : 2.31 GiB (59%)
    Title : Stigmatized Properties (2020)_©GOLD CUP™
    Writing library : x264 core 157 r2935 545de2f
    Language : Japanese
    Default : Yes
    Forced : No
    Color range : Limited
    Color primaries : BT.709
    Transfer characteristics : BT.709
    Matrix coefficients : BT.709

    Audio #1
    ID : 3
    Format : AC-3
    Format/Info : Audio Coding 3
    Commercial name : Dolby Digital
    Codec ID : A_AC3
    Duration : 1 h 51 min
    Bit rate mode : Constant
    Bit rate : 192 kb/s
    Channel(s) : 2 channels
    Channel layout : L R
    Sampling rate : 48.0 kHz
    Frame rate : 31.250 FPS (1536 SPF)
    Compression mode : Lossy
    Stream size : 153 MiB (4%)
    Title : Th.2.0.AC3.192k
    Language : Thai
    Service kind : Complete Main
    Default : Yes
    Forced : No

    Audio #2
    ID : 4
    Format : AAC LC
    Format/Info : Advanced Audio Codec Low Complexity
    Codec ID : A_AAC-2
    Duration : 1 h 51 min
    Bit rate : 384 kb/s
    Channel(s) : 6 channels
    Channel layout : C L R Ls Rs LFE
    Sampling rate : 48.0 kHz
    Frame rate : 46.875 FPS (1024 SPF)
    Compression mode : Lossy
    Stream size : 306 MiB (8%)
    Title : Jpn.AAC_384 kbs.6 channels
    Language : Japanese
    Default : Yes
    Forced : No

    Text
    ID : 5
    Format : PGS
    Muxing mode : zlib
    Codec ID : S_HDMV/PGS
    Codec ID/Info : Picture based subtitle format used on BDs/HD-DVDs
    Duration : 1 h 51 min
    Bit rate : 15.8 kb/s
    Frame rate : 0.388 FPS
    Count of elements : 2606
    Stream size : 12.7 MiB (0%)
    Title : EN.110.3.83.Yellow
    Language : English
    Default : No
    Forced : No






    Download:filecondo
    http://www.filecondo.com/dl.php?f=rdb0f11Oxk3H
    Download:cornfile
    https://www.cornfile.com/t3e8brx9uva8

  2. The Following 4 Users Say Thank You to Duckload.us For This Useful Post:

    Jodz14 (09-12-2022), santanmoon (11-17-2022), scsyn (10-03-2022), Wesker_TOT (09-12-2022)

  3. #2
    Senior Member
    สมัครเมื่อ
    Jul 2013
    โพสต์
    419
    Thanks
    1,703
    Thanked 0 Times in 0 Posts
    -ขอบคุณมากๆค่ะ ^^.

  4. #3
    Junior Member
    สมัครเมื่อ
    Mar 2021
    โพสต์
    8
    Thanks
    0
    Thanked 0 Times in 0 Posts
    โหลดไม่ได้ครับ ขึ้นไฟล์ไม่พร้อมให้โหลด

  5. #4
    Senior Member
    สมัครเมื่อ
    Dec 2013
    โพสต์
    4,172
    Thanks
    6,072
    Thanked 0 Times in 0 Posts
    ขอบคุณครับ...

  6. #5
    Senior Member
    สมัครเมื่อ
    Aug 2015
    โพสต์
    131
    Thanks
    0
    Thanked 0 Times in 0 Posts
    filecondo โหลดไม่ได้ค่ะ ไฟล์ไม่พร้อม

  7. #6
    Junior Member
    สมัครเมื่อ
    Sep 2022
    โพสต์
    1
    Thanks
    0
    Thanked 0 Times in 0 Posts
    ผมเติมทั้งคู่โหลดไม่ได้ทั้งคู่ เป็นกันมั้ยครับ

  8. #7
    Junior Member
    สมัครเมื่อ
    Sep 2012
    โพสต์
    12
    Thanks
    0
    Thanked 0 Times in 0 Posts
    อยากดูรีบสมัครfilecondo
    รีบเติมเน็ตอย่างแรง10เมก1วัน
    แต่ โหลดไม่ได้
    จนเน็ตหมด....
    ขอโปรดจงเห็นใจ
    ขอบคุณมากครับ

  9. #8
    Senior Member
    สมัครเมื่อ
    Dec 2013
    โพสต์
    698
    Thanks
    648
    Thanked 0 Times in 0 Posts
    โหลดได้แล้วนะครับผมโหลดจากคอนโดครับ

+ ตอบกลับกระทู้

ข้อมูลกระทู้

Users Browsing this Thread

ในขณะนี้มี 1 ท่านดูกระทู้อยู่. (0 สมาชิกและ 1 ผู้เยี่ยมชม)

     

กฎการโพสต์ข้อความ

  • ท่าน ไม่สามารถ ตั้งกระทู้ใหม่ได้
  • ท่าน ไม่สามารถ ตอบกระทู้ได้
  • ท่าน ไม่สามารถ แนบไฟล์ได้
  • ท่าน ไม่สามารถ แก้ไขข้อความโพสต์ได้
  • BB code สถานะ เปิด
  • Smilies สถานะ เปิด
  • [IMG] สถานะ เปิด
  • HTML สถานะ ปิด