+ ตอบกลับกระทู้
สรุปผลการค้นหา 1 ถึง 3 จากทั้งหมด 3
  1. #1
    Administrators รูปส่วนตัว Duckload.us
    สมัครเมื่อ
    Dec 2010
    โพสต์
    138,184
    Thanks
    7
    Thanked 144,397 Times in 62,757 Posts

    Thumbs up [ฝรั่ง]-[AMAZON] Sweetheart (2019) เกาะร้างซ่อนสยอง-WEB-DL.EAC-3.1080p. [Modified]-[พากย์อังกฤษ 5.1 บรรยายไทย (Master)-อังกฤษ]




    เจน (มอนส์ เคียร์ซีย์คลี) ลอยไปติดบนเกาะเขตร้อนขนาดเล็ก เธอได้พบว่ามีสัตว์ประหลาดที่น่ากลัวอยู่บนนั้นออกมา ในตอนกลางคืน เธออยู่ตามลำพังก่อนที่จะได้เจอกับลูคัส (เอมอรี โคเฮน) และมีอา (แฮนนา แมนแกน ลอว์เรนซ์) ลอยมาติดที่เกาะเช่นกัน เธอพยายามเตือนพวกเขา ก่อนที่ไม่นานพวกเขาต้องเผชิญหน้ากับมันและพยายามต่อ สู้เพื่อเอาชีวิตรอด

    Format : Matroska
    Format version : Version 4
    File size : 4.27 GiB
    Duration : 1 h 22 min
    Overall bit rate : 7 393 kb/s
    Encoded date : UTC 2022-09-11 15:19:16
    Writing application : mkvmerge v55.0.0 ('Waiting For Space') 64-bit
    Writing library : libebml v1.4.2 + libmatroska v1.6.4

    Video
    ID : 1
    Format : AVC
    Format/Info : Advanced Video Codec
    Format profile : [email protected]
    Format settings : CABAC / 3 Ref Frames
    Format settings, CABAC : Yes
    Format settings, Reference : 3 frames
    Codec ID : V_MPEG4/ISO/AVC
    Duration : 1 h 22 min
    Bit rate : 6 746 kb/s
    Width : 1 920 pixels
    Height : 800 pixels
    Display aspect ratio : 2.40:1
    Frame rate mode : Constant
    Frame rate : 23.976 (24000/1001) FPS
    Color space : YUV
    Chroma subsampling : 4:2:0
    Bit depth : 8 bits
    Scan type : Progressive
    Bits/(Pixel*Frame) : 0.183
    Stream size : 3.90 GiB (91%)
    Language : English
    Default : Yes
    Forced : No
    Color range : Limited
    Color primaries : BT.709
    Transfer characteristics : BT.709
    Matrix coefficients : BT.709

    Audio
    ID : 2
    Format : E-AC-3
    Format/Info : Enhanced AC-3
    Commercial name : Dolby Digital Plus
    Codec ID : A_EAC3
    Duration : 1 h 22 min
    Bit rate mode : Constant
    Bit rate : 640 kb/s
    Channel(s) : 6 channels
    Channel layout : L R C LFE Ls Rs
    Sampling rate : 48.0 kHz
    Frame rate : 31.250 FPS (1536 SPF)
    Compression mode : Lossy
    Stream size : 379 MiB (9%)
    Title : E-AC3 English
    Language : English
    Service kind : Complete Main
    Default : Yes
    Forced : No

    Text #1
    ID : 3
    Format : VobSub
    Muxing mode : zlib
    Codec ID : S_VOBSUB
    Codec ID/Info : Picture based subtitle format used on DVDs
    Duration : 1 h 15 min
    Bit rate : 3 103 b/s
    Frame rate : 0.065 FPS
    Count of elements : 291
    Stream size : 1.67 MiB (0%)
    Title : Sub Thai 1080p
    Language : Thai
    Default : No
    Forced : No

    Text #2
    ID : 4
    Format : UTF-8
    Codec ID : S_TEXT/UTF8
    Codec ID/Info : UTF-8 Plain Text
    Duration : 1 h 15 min
    Bit rate : 32 b/s
    Frame rate : 0.065 FPS
    Count of elements : 291
    Stream size : 17.6 KiB (0%)
    Title : Sub Thai SRT
    Language : Thai
    Default : No
    Forced : No

    Text #3
    ID : 5
    Format : PGS
    Muxing mode : zlib
    Codec ID : S_HDMV/PGS
    Codec ID/Info : Picture based subtitle format used on BDs/HD-DVDs
    Duration : 1 h 15 min
    Bit rate : 9 687 b/s
    Frame rate : 0.129 FPS
    Count of elements : 582
    Stream size : 5.20 MiB (0%)
    Title : Sub Thai PGS
    Language : Thai
    Default : Yes
    Forced : No

    Text #4
    ID : 6
    Format : UTF-8
    Codec ID : S_TEXT/UTF8
    Codec ID/Info : UTF-8 Plain Text
    Duration : 1 h 20 min
    Bit rate : 20 b/s
    Frame rate : 0.082 FPS
    Count of elements : 393
    Stream size : 12.1 KiB (0%)
    Title : Sub English SRT
    Language : English
    Default : No
    Forced : No







    Download:filecondo
    http://www.filecondo.com/dl.php?f=2c70c41Oz95C
    Download:cornfile
    https://www.cornfile.com/cd2926tdoqw8

  2. The Following 2 Users Say Thank You to Duckload.us For This Useful Post:

    jackjangri (09-24-2022), Wesker_TOT (09-19-2022)

  3. #2
    Senior Member
    สมัครเมื่อ
    Dec 2013
    โพสต์
    3,975
    Thanks
    5,877
    Thanked 0 Times in 0 Posts
    ขอบคุณครับ...

  4. #3
    I'm donate !
    สมัครเมื่อ
    Jun 2011
    โพสต์
    508
    Thanks
    660
    Thanked 40 Times in 29 Posts
    ขอบคุณครับ...

+ ตอบกลับกระทู้

ข้อมูลกระทู้

Users Browsing this Thread

ในขณะนี้มี 1 ท่านดูกระทู้อยู่. (0 สมาชิกและ 1 ผู้เยี่ยมชม)

     

กฎการโพสต์ข้อความ

  • ท่าน ไม่สามารถ ตั้งกระทู้ใหม่ได้
  • ท่าน ไม่สามารถ ตอบกระทู้ได้
  • ท่าน ไม่สามารถ แนบไฟล์ได้
  • ท่าน ไม่สามารถ แก้ไขข้อความโพสต์ได้
  • BB code สถานะ เปิด
  • Smilies สถานะ เปิด
  • [IMG] สถานะ เปิด
  • HTML สถานะ ปิด