+ ตอบกลับกระทู้
สรุปผลการค้นหา 1 ถึง 2 จากทั้งหมด 2
  1. #1
    Administrators รูปส่วนตัว Duckload.us
    สมัครเมื่อ
    Dec 2010
    โพสต์
    138,184
    Thanks
    7
    Thanked 144,397 Times in 62,757 Posts

    Thumbs up [ฝรั่ง]-[NETFLIX] Do Revenge (2022) แค้นนัก... สลับกันแก้-WEB-DL.EAC-3.Atmos.1080p. [Netflix (web-dl)]-[พากย์อังกฤษ Atmos 5.1 ไทย 5.1 บรรยายไทย (Master)-อังกฤษ]




    สาวฮอตตัวแม่จากโรงเรียนเอกชนสุดหรูที่โดนเขี่ยตกกระ ป๋อง แอบทำข้อตกลงลับกับเด็กใหม่มาดนิ่ง เพื่อช่วยกันหาทางวางแผนล้างแค้นศัตรูของกันและกัน


    Format : Matroska
    Format version : Version 4
    File size : 4.35 GiB
    Duration : 2 h 0 min
    Overall bit rate : 5 157 kb/s
    Encoded date : UTC 2022-09-16 13:56:17
    Writing application : mkvmerge v55.0.0 ('Waiting For Space') 64-bit
    Writing library : libebml v1.4.2 + libmatroska v1.6.4

    Video
    ID : 1
    Format : AVC
    Format/Info : Advanced Video Codec
    Format profile : [email protected]
    Format settings : CABAC / 3 Ref Frames
    Format settings, CABAC : Yes
    Format settings, Reference : 3 frames
    Codec ID : V_MPEG4/ISO/AVC
    Duration : 2 h 0 min
    Bit rate : 3 661 kb/s
    Width : 1 920 pixels
    Height : 804 pixels
    Display aspect ratio : 2.40:1
    Frame rate mode : Constant
    Frame rate : 24.000 FPS
    Color space : YUV
    Chroma subsampling : 4:2:0
    Bit depth : 8 bits
    Scan type : Progressive
    Bits/(Pixel*Frame) : 0.099
    Stream size : 3.09 GiB (71%)
    Language : English
    Default : Yes
    Forced : No

    Audio #1
    ID : 2
    Format : E-AC-3 JOC
    Format/Info : Enhanced AC-3 with Joint Object Coding
    Commercial name : Dolby Digital Plus with Dolby Atmos
    Codec ID : A_EAC3
    Duration : 2 h 0 min
    Bit rate mode : Constant
    Bit rate : 768 kb/s
    Channel(s) : 6 channels
    Channel layout : L R C LFE Ls Rs
    Sampling rate : 48.0 kHz
    Frame rate : 31.250 FPS (1536 SPF)
    Compression mode : Lossy
    Stream size : 664 MiB (15%)
    Title : E-AC3 Atmos English
    Language : English
    Service kind : Complete Main
    Default : Yes
    Forced : No
    Complexity index : 16
    Number of dynamic objects : 15
    Bed channel count : 1 channel
    Bed channel configuration : LFE

    Audio #2
    ID : 3
    Format : E-AC-3
    Format/Info : Enhanced AC-3
    Commercial name : Dolby Digital Plus
    Codec ID : A_EAC3
    Duration : 2 h 0 min
    Bit rate mode : Constant
    Bit rate : 640 kb/s
    Channel(s) : 6 channels
    Channel layout : L R C LFE Ls Rs
    Sampling rate : 48.0 kHz
    Frame rate : 31.250 FPS (1536 SPF)
    Compression mode : Lossy
    Stream size : 553 MiB (12%)
    Title : E-AC3 Thai
    Language : Thai
    Service kind : Complete Main
    Default : No
    Forced : No

    Text #1
    ID : 4
    Format : VobSub
    Muxing mode : zlib
    Codec ID : S_VOBSUB
    Codec ID/Info : Picture based subtitle format used on DVDs
    Duration : 1 h 58 min
    Bit rate : 15.9 kb/s
    Frame rate : 0.271 FPS
    Count of elements : 1929
    Stream size : 13.5 MiB (0%)
    Title : Sub Thai 1080p
    Language : Thai
    Default : No
    Forced : No

    Text #2
    ID : 5
    Format : UTF-8
    Codec ID : S_TEXT/UTF8
    Codec ID/Info : UTF-8 Plain Text
    Duration : 1 h 58 min
    Bit rate : 172 b/s
    Frame rate : 0.271 FPS
    Count of elements : 1929
    Stream size : 150 KiB (0%)
    Title : Sub Thai SRT
    Language : Thai
    Default : No
    Forced : No

    Text #3
    ID : 6
    Format : PGS
    Muxing mode : zlib
    Codec ID : S_HDMV/PGS
    Codec ID/Info : Picture based subtitle format used on BDs/HD-DVDs
    Duration : 1 h 58 min
    Bit rate : 48.9 kb/s
    Frame rate : 0.541 FPS
    Count of elements : 3858
    Stream size : 41.6 MiB (1%)
    Title : Sub Thai PGS
    Language : Thai
    Default : No
    Forced : No

    Text #4
    ID : 7
    Format : PGS
    Muxing mode : zlib
    Codec ID : S_HDMV/PGS
    Codec ID/Info : Picture based subtitle format used on BDs/HD-DVDs
    Duration : 1 h 58 min
    Bit rate : 80.0 kb/s
    Frame rate : 0.541 FPS
    Count of elements : 3858
    Stream size : 67.9 MiB (2%)
    Title : Sub Thai PGS NETFLIX
    Language : Thai
    Default : Yes
    Forced : No

    Text #5
    ID : 8
    Format : UTF-8
    Codec ID : S_TEXT/UTF8
    Codec ID/Info : UTF-8 Plain Text
    Duration : 1 h 55 min
    Bit rate : 75 b/s
    Frame rate : 0.275 FPS
    Count of elements : 1906
    Stream size : 63.8 KiB (0%)
    Title : Sub English SRT
    Language : English
    Default : No
    Forced : No






    Download:filecondo
    http://www.filecondo.com/dl.php?f=6694531OzuxE
    Download:cornfile
    https://www.cornfile.com/4mvnbyzo5ey5

  2. The Following 2 Users Say Thank You to Duckload.us For This Useful Post:

    kappa (09-20-2022), Wesker_TOT (09-19-2022)

  3. #2
    Senior Member
    สมัครเมื่อ
    Dec 2013
    โพสต์
    3,975
    Thanks
    5,877
    Thanked 0 Times in 0 Posts
    ขอบคุณครับ...

+ ตอบกลับกระทู้

ข้อมูลกระทู้

Users Browsing this Thread

ในขณะนี้มี 1 ท่านดูกระทู้อยู่. (0 สมาชิกและ 1 ผู้เยี่ยมชม)

     

กฎการโพสต์ข้อความ

  • ท่าน ไม่สามารถ ตั้งกระทู้ใหม่ได้
  • ท่าน ไม่สามารถ ตอบกระทู้ได้
  • ท่าน ไม่สามารถ แนบไฟล์ได้
  • ท่าน ไม่สามารถ แก้ไขข้อความโพสต์ได้
  • BB code สถานะ เปิด
  • Smilies สถานะ เปิด
  • [IMG] สถานะ เปิด
  • HTML สถานะ ปิด