+ ตอบกลับกระทู้
สรุปผลการค้นหา 1 ถึง 3 จากทั้งหมด 3
  1. #1
    Administrators รูปส่วนตัว Duckload.us
    สมัครเมื่อ
    Dec 2010
    โพสต์
    138,184
    Thanks
    7
    Thanked 144,399 Times in 62,758 Posts

    Thumbs up [ฝรั่ง]-Andor S01E01 [1080p WEB-DL]-[เสียง: ไทย DD+ 5.1 + อังกฤษ Atmos]-[Sub: ไทย + อังกฤษ SRT]-WEB-DL.H.264.1080p. [Master]-[พากย์ไทย บรรยายไทย]



    Cassian Andor หนึ่งในตัวละครหลักจาก Rogue One ในช่วงเวลาก่อนที่เขาจะกลายเป็นวีรบุรุษ เมื่อบ้านเกิดของเขาถูกพวกจักรวรรดิเข้าโจมตี จนทำให้เขาต้องหลบหนีและกลายเป็นผู้อพยพ เรื่องราวการผจญภัยของสายลับแห่งกลุ่มกบฏจึงเริ่มต้น ขึ้น

    Format : AVC
    Format/Info : Advanced Video Codec
    Format profile : [email protected]
    Format settings : CABAC / 4 Ref Frames
    Format settings, CABAC : Yes
    Format settings, Reference : 4 frames
    Codec ID : V_MPEG4/ISO/AVC
    Duration : 39 min 10 s
    Bit rate mode : Variable
    Bit rate : 5 985 kb/s
    Maximum bit rate : 12.7 Mb/s
    Width : 1 920 pixels
    Height : 1 080 pixels
    Display aspect ratio : 16:9
    Frame rate mode : Constant
    Frame rate : 24.000 FPS
    Color space : YUV
    Chroma subsampling : 4:2:0
    Bit depth : 8 bits
    Scan type : Progressive
    Bits/(Pixel*Frame) : 0.120
    Stream size : 1.64 GiB (86%)
    Language : English
    Default : Yes
    Forced : No
    Color range : Limited
    Color primaries : BT.709
    Transfer characteristics : BT.709
    Matrix coefficients : BT.709

    Audio #1
    ID : 2
    Format : E-AC-3 JOC
    Format/Info : Enhanced AC-3 with Joint Object Coding
    Commercial name : Dolby Digital Plus with Dolby Atmos
    Codec ID : A_EAC3
    Duration : 39 min 10 s
    Bit rate mode : Constant
    Bit rate : 768 kb/s
    Channel(s) : 6 channels
    Channel layout : L R C LFE Ls Rs
    Sampling rate : 48.0 kHz
    Frame rate : 31.250 FPS (1536 SPF)
    Compression mode : Lossy
    Stream size : 215 MiB (11%)
    Title : English (Atmos - D+)
    Language : English
    Service kind : Complete Main
    Default : No
    Forced : No
    Complexity index : 16
    Number of dynamic objects : 15
    Bed channel count : 1 channel
    Bed channel configuration : LFE

    Audio #2
    ID : 3
    Format : E-AC-3
    Format/Info : Enhanced AC-3
    Commercial name : Dolby Digital Plus
    Codec ID : A_EAC3
    Duration : 39 min 10 s
    Bit rate mode : Constant
    Bit rate : 192 kb/s
    Channel(s) : 6 channels
    Channel layout : L R C LFE Ls Rs
    Sampling rate : 48.0 kHz
    Frame rate : 31.250 FPS (1536 SPF)
    Compression mode : Lossy
    Stream size : 53.8 MiB (3%)
    Title : Thai (DD+ 5.1 - Hotstar)
    Language : Thai
    Service kind : Complete Main
    Default : Yes
    Forced : No

    Text #1
    ID : 4
    Format : UTF-8
    Codec ID : S_TEXT/UTF8
    Codec ID/Info : UTF-8 Plain Text
    Duration : 35 min 25 s
    Bit rate : 62 b/s
    Frame rate : 0.248 FPS
    Count of elements : 527
    Stream size : 16.3 KiB (0%)
    Title : English (SRT - Hotstar)
    Language : English
    Default : No
    Forced : No

    Text #2
    ID : 5
    Format : UTF-8
    Codec ID : S_TEXT/UTF8
    Codec ID/Info : UTF-8 Plain Text
    Duration : 38 min 44 s
    Bit rate : 116 b/s
    Frame rate : 0.193 FPS
    Count of elements : 449
    Stream size : 33.1 KiB (0%)
    Title : Thai (SRT - Hotstar)
    Language : Thai
    Default : Yes
    Forced : No






    Download:filecondo
    1 http://www.filecondo.com/dl.php?f=Vc9d241OBjvf
    2 http://www.filecondo.com/dl.php?f=G09b621OBjLU
    3 http://www.filecondo.com/dl.php?f=03e6cd1OBk9U

    Download:cornfile
    Andor.S01E01.1080p.DSNP.WEB-DL.DDP5.1.Atmos.H.264.mkv - 1.9 GB
    Andor.S01E02.1080p.DSNP.WEB-DL.DDP5.1.Atmos.H.264.mkv - 1.7 GB
    Andor.S01E03.1080p.DSNP.WEB-DL.DDP5.1.Atmos.H.264.mkv - 2.1 GB

  2. The Following 4 Users Say Thank You to Duckload.us For This Useful Post:

    jackjangri (09-24-2022), lonin (09-23-2022), noi54 (09-25-2022), Wesker_TOT (09-23-2022)

  3. #2
    Senior Member
    สมัครเมื่อ
    Dec 2013
    โพสต์
    3,976
    Thanks
    5,878
    Thanked 0 Times in 0 Posts
    ขอบคุณครับ...

  4. #3
    I'm donate !
    สมัครเมื่อ
    Jun 2011
    โพสต์
    508
    Thanks
    660
    Thanked 40 Times in 29 Posts
    ขอบคุณครับ...

+ ตอบกลับกระทู้

ข้อมูลกระทู้

Users Browsing this Thread

ในขณะนี้มี 3 ท่านดูกระทู้อยู่. (0 สมาชิกและ 3 ผู้เยี่ยมชม)

     

กฎการโพสต์ข้อความ

  • ท่าน ไม่สามารถ ตั้งกระทู้ใหม่ได้
  • ท่าน ไม่สามารถ ตอบกระทู้ได้
  • ท่าน ไม่สามารถ แนบไฟล์ได้
  • ท่าน ไม่สามารถ แก้ไขข้อความโพสต์ได้
  • BB code สถานะ เปิด
  • Smilies สถานะ เปิด
  • [IMG] สถานะ เปิด
  • HTML สถานะ ปิด