+ ตอบกลับกระทู้
สรุปผลการค้นหา 1 ถึง 2 จากทั้งหมด 2
  1. #1
    Administrators รูปส่วนตัว Duckload.us
    สมัครเมื่อ
    Dec 2010
    โพสต์
    138,184
    Thanks
    7
    Thanked 144,397 Times in 62,757 Posts

    Thumbs up [ฝรั่ง]-Andor S01E01-3 [2160p Hybrid WEB-DL]-[เสียง: ไทย DD+ 5.1 + อังกฤษ Atmos]-[Sub: ไทย + อังกฤษ SRT]-Encode.H.265.2160p. [Master]-[พากย์ไทย บรรยายไทย]



    -เรื่องย่อ-
    E01: ย้อนกลับไปก่อนภารกิจยึดดาวมรณะ แคสเซียน เอนดอร์ผู้บ้าบิ่นออกค้นหาข้อมูลเกี่ยวกับอดีตของเขา จนทำให้ตัวเองกลายเป็นอาชญากรที่ทางการต้องการตัว

    Format : HEVC
    Format/Info : High Efficiency Video Coding
    Format profile : Main [email protected]@High
    HDR format : Dolby Vision, Version 1.0, dvhe.08.06, BL+RPU, HDR10 compatible / SMPTE ST 2086, HDR10 compatible
    Codec ID : V_MPEGH/ISO/HEVC
    Duration : 39 min 10 s
    Bit rate : 15.1 Mb/s
    Width : 3 840 pixels
    Height : 2 160 pixels
    Display aspect ratio : 16:9
    Frame rate mode : Constant
    Frame rate : 24.000 FPS
    Color space : YUV
    Chroma subsampling : 4:2:0
    Bit depth : 10 bits
    Bits/(Pixel*Frame) : 0.076
    Stream size : 4.14 GiB (94%)
    Language : English
    Default : Yes
    Forced : No
    Color range : Limited
    Color primaries : BT.2020
    Transfer characteristics : PQ
    Matrix coefficients : BT.2020 non-constant
    Mastering display color pri : BT.2020
    Mastering display luminance : min: 0.0000 cd/m2, max: 1000 cd/m2

    Audio #1
    ID : 2
    Format : E-AC-3 JOC
    Format/Info : Enhanced AC-3 with Joint Object Coding
    Commercial name : Dolby Digital Plus with Dolby Atmos
    Codec ID : A_EAC3
    Duration : 39 min 10 s
    Bit rate mode : Constant
    Bit rate : 768 kb/s
    Channel(s) : 6 channels
    Channel layout : L R C LFE Ls Rs
    Sampling rate : 48.0 kHz
    Frame rate : 31.250 FPS (1536 SPF)
    Compression mode : Lossy
    Stream size : 215 MiB (5%)
    Title : English (Atmos - D+)
    Language : English
    Service kind : Complete Main
    Default : No
    Forced : No
    Complexity index : 16
    Number of dynamic objects : 15
    Bed channel count : 1 channel
    Bed channel configuration : LFE

    Audio #2
    ID : 3
    Format : E-AC-3
    Format/Info : Enhanced AC-3
    Commercial name : Dolby Digital Plus
    Codec ID : A_EAC3
    Duration : 39 min 10 s
    Bit rate mode : Constant
    Bit rate : 192 kb/s
    Channel(s) : 6 channels
    Channel layout : L R C LFE Ls Rs
    Sampling rate : 48.0 kHz
    Frame rate : 31.250 FPS (1536 SPF)
    Compression mode : Lossy
    Stream size : 53.8 MiB (1%)
    Title : Thai (DD+ 5.1 - Hotstar)
    Language : Thai
    Service kind : Complete Main
    Default : Yes
    Forced : No

    Text #1
    ID : 4
    Format : UTF-8
    Codec ID : S_TEXT/UTF8
    Codec ID/Info : UTF-8 Plain Text
    Duration : 35 min 25 s
    Bit rate : 62 b/s
    Frame rate : 0.248 FPS
    Count of elements : 527
    Stream size : 16.3 KiB (0%)
    Title : English (SRT - Hotstar)
    Language : English
    Default : No
    Forced : No

    Text #2
    ID : 5
    Format : UTF-8
    Codec ID : S_TEXT/UTF8
    Codec ID/Info : UTF-8 Plain Text
    Duration : 38 min 44 s
    Bit rate : 116 b/s
    Frame rate : 0.193 FPS
    Count of elements : 449
    Stream size : 33.1 KiB (0%)
    Title : Thai (SRT - Hotstar)
    Language : Thai
    Default : Yes
    Forced : No



    Download:filecondo
    1 http://www.filecondo.com/dl.php?f=kdb21f1OBjIt
    2 http://www.filecondo.com/dl.php?f=W10b171OBk4l
    3 http://www.filecondo.com/dl.php?f=Mb1fe61OBklJ

    Download:cornfile
    Andor.S01E01.2160p.DSNP.HYBRID.WEB-DL.DDP5.1.Atmos.H.265.mkv - 4.4 GB
    Andor.S01E02.2160p.DSNP.HYBRID.WEB-DL.DDP5.1.Atmos.H.265.mkv - 3.9 GB
    Andor.S01E03.2160p.DSNP.HYBRID.WEB-DL.DDP5.1.Atmos.H.265.mkv - 4.5 GB

  2. The Following User Says Thank You to Duckload.us For This Useful Post:

    Wesker_TOT (09-23-2022)

  3. #2
    Senior Member
    สมัครเมื่อ
    Dec 2013
    โพสต์
    3,975
    Thanks
    5,877
    Thanked 0 Times in 0 Posts
    ขอบคุณครับ...

+ ตอบกลับกระทู้

ข้อมูลกระทู้

Users Browsing this Thread

ในขณะนี้มี 1 ท่านดูกระทู้อยู่. (0 สมาชิกและ 1 ผู้เยี่ยมชม)

     

กฎการโพสต์ข้อความ

  • ท่าน ไม่สามารถ ตั้งกระทู้ใหม่ได้
  • ท่าน ไม่สามารถ ตอบกระทู้ได้
  • ท่าน ไม่สามารถ แนบไฟล์ได้
  • ท่าน ไม่สามารถ แก้ไขข้อความโพสต์ได้
  • BB code สถานะ เปิด
  • Smilies สถานะ เปิด
  • [IMG] สถานะ เปิด
  • HTML สถานะ ปิด