+ ตอบกลับกระทู้
สรุปผลการค้นหา 1 ถึง 5 จากทั้งหมด 5
  1. #1
    Administrators รูปส่วนตัว Duckload.us
    สมัครเมื่อ
    Dec 2010
    โพสต์
    139,885
    Thanks
    7
    Thanked 146,393 Times in 63,688 Posts

    Thumbs up [ญี่ปุ่น]-[NETFLIX] Fullmetal Alchemist The Final Alchemy (2022) แขนกลคนแปรธาตุ: ปัจฉิมบท-WEB-DL.EAC-3.1080p. [Netflix (web-dl)]-[พากย์ญี่ปุ่น 5.1 ไทย 5.1 บรรยายไทย (Master)-อังกฤษ]



    การเดินทางที่ยาวนานและทรหดของพี่น้องเอลริคมาถึงจุด สิ้นสุด ในผลงานปัจฉิมบทปิดฉากมหากาพย์ ที่ทั้งคู่ต้องต่อกรกับภัยร้ายท้าทายจักรวาลซึ่งจะชี ้ชะตาประเทศชาติ

    Format : Matroska
    Format version : Version 4
    File size : 4.43 GiB
    Duration : 2 h 23 min
    Overall bit rate : 4 403 kb/s
    Encoded date : UTC 2022-09-24 12:04:59
    Writing application : mkvmerge v55.0.0 ('Waiting For Space') 64-bit
    Writing library : libebml v1.4.2 + libmatroska v1.6.4

    Video
    ID : 1
    Format : AVC
    Format/Info : Advanced Video Codec
    Format profile : [email protected]
    Format settings : CABAC / 3 Ref Frames
    Format settings, CABAC : Yes
    Format settings, Reference : 3 frames
    Codec ID : V_MPEG4/ISO/AVC
    Duration : 2 h 23 min
    Bit rate : 3 076 kb/s
    Width : 1 920 pixels
    Height : 816 pixels
    Display aspect ratio : 2.35:1
    Frame rate mode : Constant
    Frame rate : 23.976 (24000/1001) FPS
    Color space : YUV
    Chroma subsampling : 4:2:0
    Bit depth : 8 bits
    Scan type : Progressive
    Bits/(Pixel*Frame) : 0.082
    Stream size : 3.09 GiB (70%)
    Language : Japanese
    Default : Yes
    Forced : No

    Audio #1
    ID : 2
    Format : E-AC-3
    Format/Info : Enhanced AC-3
    Commercial name : Dolby Digital Plus
    Codec ID : A_EAC3
    Duration : 2 h 23 min
    Bit rate mode : Constant
    Bit rate : 640 kb/s
    Channel(s) : 6 channels
    Channel layout : L R C LFE Ls Rs
    Sampling rate : 48.0 kHz
    Frame rate : 31.250 FPS (1536 SPF)
    Compression mode : Lossy
    Stream size : 659 MiB (15%)
    Title : E-AC3 Japanese
    Language : Japanese
    Service kind : Complete Main
    Default : Yes
    Forced : No

    Audio #2
    ID : 3
    Format : E-AC-3
    Format/Info : Enhanced AC-3
    Commercial name : Dolby Digital Plus
    Codec ID : A_EAC3
    Duration : 2 h 23 min
    Bit rate mode : Constant
    Bit rate : 640 kb/s
    Channel(s) : 6 channels
    Channel layout : L R C LFE Ls Rs
    Sampling rate : 48.0 kHz
    Frame rate : 31.250 FPS (1536 SPF)
    Compression mode : Lossy
    Stream size : 659 MiB (15%)
    Title : E-AC3 Thai
    Language : Thai
    Service kind : Complete Main
    Default : No
    Forced : No

    Text #1
    ID : 4
    Format : VobSub
    Muxing mode : zlib
    Codec ID : S_VOBSUB
    Codec ID/Info : Picture based subtitle format used on DVDs
    Duration : 1 h 50 min
    Bit rate : 11.0 kb/s
    Frame rate : 0.253 FPS
    Count of elements : 1674
    Stream size : 8.70 MiB (0%)
    Title : Sub Thai 1080p
    Language : Thai
    Default : No
    Forced : No

    Text #2
    ID : 5
    Format : UTF-8
    Codec ID : S_TEXT/UTF8
    Codec ID/Info : UTF-8 Plain Text
    Duration : 1 h 50 min
    Bit rate : 114 b/s
    Frame rate : 0.253 FPS
    Count of elements : 1674
    Stream size : 92.3 KiB (0%)
    Title : Sub Thai SRT
    Language : Thai
    Default : No
    Forced : No

    Text #3
    ID : 6
    Format : PGS
    Muxing mode : zlib
    Codec ID : S_HDMV/PGS
    Codec ID/Info : Picture based subtitle format used on BDs/HD-DVDs
    Duration : 1 h 50 min
    Bit rate : 35.0 kb/s
    Frame rate : 0.506 FPS
    Count of elements : 3348
    Stream size : 27.6 MiB (1%)
    Title : Sub Thai PGS
    Language : Thai
    Default : No
    Forced : No

    Text #4
    ID : 7
    Format : PGS
    Muxing mode : zlib
    Codec ID : S_HDMV/PGS
    Codec ID/Info : Picture based subtitle format used on BDs/HD-DVDs
    Duration : 2 h 21 min
    Bit rate : 41.8 kb/s
    Frame rate : 0.284 FPS
    Count of elements : 2412
    Stream size : 42.4 MiB (1%)
    Title : Sub Thai PGS NETFLIX
    Language : Thai
    Default : Yes
    Forced : No

    Text #5
    ID : 8
    Format : UTF-8
    Codec ID : S_TEXT/UTF8
    Codec ID/Info : UTF-8 Plain Text
    Duration : 1 h 44 min
    Bit rate : 58 b/s
    Frame rate : 0.265 FPS
    Count of elements : 1659
    Stream size : 45.0 KiB (0%)
    Title : Sub English SRT
    Language : English
    Default : No
    Forced : No






    Download:filecondo
    Fullmetal_Alchemist_The_Final_Alchemy_(2022).mkv
    http://www.filecondo.com/dl.php?f=C36e541OCnjA
    FULLMETAL_ALCHEMlST_Final_Transmutation_(2022)_แขน กลคนแปรธาตุ_ปัจฉิมบท.mkv
    http://www.filecondo.com/dl.php?f=i36fa91OCnN0
    FullMetal_Alchemist_(2017).mkv
    http://www.filecondo.com/dl.php?f=nd42a11OCo24
    Fullmetal_Alchemist_The_Revenge_of_Scar_(2022).mkv
    http://www.filecondo.com/dl.php?f=B30a611OCopo

    Download:cornfile
    FullMetal Alchemist (2017).mkv - 4.3 GB
    Fullmetal Alchemist The Final Alchemy (2022).mkv - 4.4 GB
    Fullmetal Alchemist The Revenge of Scar (2022).mkv - 4.3 GB
    FULLMETAL ALCHEMlST Final Transmutation (2022) แขนกลคนแปรธาตุ ปัจฉิมบท.mkv - 5.9 GB

  2. The Following 5 Users Say Thank You to Duckload.us For This Useful Post:

    Eternallove (09-27-2022), Jodz14 (09-29-2022), noi54 (09-25-2022), sawara (09-30-2022), Wesker_TOT (09-26-2022)

  3. #2
    Senior Member
    สมัครเมื่อ
    Dec 2013
    โพสต์
    4,172
    Thanks
    6,072
    Thanked 0 Times in 0 Posts
    ขอบคุณครับ...

  4. #3
    Senior Member
    สมัครเมื่อ
    Oct 2013
    โพสต์
    2,264
    Thanks
    0
    Thanked 0 Times in 0 Posts
    ขอบคุณครับ

  5. #4
    Senior Member
    สมัครเมื่อ
    Dec 2013
    โพสต์
    698
    Thanks
    648
    Thanked 0 Times in 0 Posts
    ขอบคุณครับบ

  6. #5
    Senior Member
    สมัครเมื่อ
    Jul 2012
    โพสต์
    8,134
    Thanks
    0
    Thanked 0 Times in 0 Posts
    ขอบคุณมากจ้า

+ ตอบกลับกระทู้

ข้อมูลกระทู้

Users Browsing this Thread

ในขณะนี้มี 1 ท่านดูกระทู้อยู่. (0 สมาชิกและ 1 ผู้เยี่ยมชม)

     

กฎการโพสต์ข้อความ

  • ท่าน ไม่สามารถ ตั้งกระทู้ใหม่ได้
  • ท่าน ไม่สามารถ ตอบกระทู้ได้
  • ท่าน ไม่สามารถ แนบไฟล์ได้
  • ท่าน ไม่สามารถ แก้ไขข้อความโพสต์ได้
  • BB code สถานะ เปิด
  • Smilies สถานะ เปิด
  • [IMG] สถานะ เปิด
  • HTML สถานะ ปิด