+ ตอบกลับกระทู้
สรุปผลการค้นหา 1 ถึง 4 จากทั้งหมด 4
  1. #1
    Administrators รูปส่วนตัว Duckload.us
    สมัครเมื่อ
    Dec 2010
    โพสต์
    139,860
    Thanks
    7
    Thanked 146,381 Times in 63,686 Posts

    Lightbulb [ฝรั่ง]-Three Thousand Years of Longing.2022 DD5.1 สามพันปีแห่งความโหยหา **(บรรยาย Eng -บรรยายไทย แปล อนันต์ โพธิสูง)**-WEB-DL.H.264.1080p. [Rip]-[Soundtrack บรรยายไทย (แปล)]



    เรื่องราวเล่าถึงการพบกันของนักวิชาการกับจินนี่ในโร งแรมแห่งหนึ่งของอิสตันบูล จินนี่ได้เสนอมอบพรสามประการให้แก่เธอ เพื่อแลกกับอิสรภาพของเขา แต่เรื่องราวได้นำพาไปสู่เหตุการณ์ที่ไม่อยู่ในแผนกา รของทั้งคู่

    Format : Matroska
    Format version : Version 4
    File size : 5.37 GiB
    Duration : 1 h 48 min
    Overall bit rate : 7 075 kb/s
    Encoded date : UTC 2022-09-29 06:37:11
    Writing application : mkvmerge v67.0.0 ('Under Stars') 64-bit
    Writing library : libebml v1.4.2 + libmatroska v1.6.4

    Video
    ID : 1
    Format : AVC
    Format/Info : Advanced Video Codec
    Format profile : [email protected]
    Format settings : CABAC / 5 Ref Frames
    Format settings, CABAC : Yes
    Format settings, Reference frames : 5 frames
    Codec ID : V_MPEG4/ISO/AVC
    Duration : 1 h 48 min
    Bit rate : 6 688 kb/s
    Width : 1 918 pixels
    Height : 800 pixels
    Display aspect ratio : 2.40:1
    Original display aspect ratio : 2.40:1
    Frame rate mode : Constant
    Frame rate : 23.976 (24000/1001) FPS
    Color space : YUV
    Chroma subsampling : 4:2:0
    Bit depth : 8 bits
    Scan type : Progressive
    Bits/(Pixel*Frame) : 0.182
    Stream size : 5.08 GiB (95%)
    Language : English
    Default : Yes
    Forced : No
    Color range : Limited
    Color primaries : BT.709
    Transfer characteristics : BT.709
    Matrix coefficients : BT.709

    Audio
    ID : 2
    Format : AC-3
    Format/Info : Audio Coding 3
    Commercial name : Dolby Digital
    Codec ID : A_AC3
    Duration : 1 h 48 min
    Bit rate mode : Constant
    Bit rate : 384 kb/s
    Channel(s) : 6 channels
    Channel layout : L R C LFE Ls Rs
    Sampling rate : 48.0 kHz
    Frame rate : 31.250 FPS (1536 SPF)
    Compression mode : Lossy
    Stream size : 298 MiB (5%)
    Language : English
    Service kind : Complete Main
    Default : Yes
    Forced : No

    Text #1
    ID : 3
    Format : UTF-8
    Codec ID : S_TEXT/UTF8
    Codec ID/Info : UTF-8 Plain Text
    Duration : 1 h 44 min
    Bit rate : 62 b/s
    Count of elements : 1526
    Stream size : 48.2 KiB (0%)
    Title : SDH
    Language : English
    Default : No
    Forced : No

    Text #2
    ID : 4
    Format : UTF-8
    Codec ID : S_TEXT/UTF8
    Codec ID/Info : UTF-8 Plain Text
    Duration : 1 h 39 min
    Bit rate : 55 b/s
    Count of elements : 1245
    Stream size : 40.5 KiB (0%)
    Title : Eng
    Language : English
    Default : No
    Forced : No

    Text #3
    ID : 5
    Format : UTF-8
    Codec ID : S_TEXT/UTF8
    Codec ID/Info : UTF-8 Plain Text
    Duration : 1 h 39 min
    Bit rate : 126 b/s
    Count of elements : 1323
    Stream size : 92.0 KiB (0%)
    Language : Thai
    Default : Yes
    Forced : No

    Menu
    00:00:00.000 : en:Chapter 1
    00:08:25.296 : en:Chapter 2
    00:19:18.199 : en:Chapter 3
    00:29:17.966 : en:Chapter 4
    00:37:59.904 : en:Chapter 5
    00:47:59.754 : en:Chapter 6
    00:57:26.988 : en:Chapter 7
    01:09:26.875 : en:Chapter 8
    01:17:55.842 : en:Chapter 9
    01:26:46.039 : en:Chapter 10
    01:40:54.012 : en:Chapter 11





    *** บรรยายไทย (แปล) โดย อนันต์ โพธิสูง *****
    Download:filecondo
    http://www.filecondo.com/dl.php?f=Q409561ODQOn

    Download:cornfile
    ทีมงาน Duckload ขอระงับการอัพไฟล์ใหม่ๆ ขึ้น cornfile ทั้งหมด Click!!

  2. The Following 3 Users Say Thank You to Duckload.us For This Useful Post:

    jackjangri (09-30-2022), noi54 (10-01-2022), Wesker_TOT (09-30-2022)

  3. #2
    Senior Member
    สมัครเมื่อ
    Dec 2013
    โพสต์
    4,172
    Thanks
    6,072
    Thanked 0 Times in 0 Posts
    ขอบคุณครับ...

  4. #3
    I'm donate !
    สมัครเมื่อ
    Jun 2011
    โพสต์
    568
    Thanks
    717
    Thanked 40 Times in 29 Posts
    ขอบคุณครับ...

  5. #4
    Senior Member
    สมัครเมื่อ
    May 2011
    โพสต์
    154
    Thanks
    44
    Thanked 0 Times in 0 Posts
    Filecondo น่าจะไปแล้ว

+ ตอบกลับกระทู้

ข้อมูลกระทู้

Users Browsing this Thread

ในขณะนี้มี 1 ท่านดูกระทู้อยู่. (0 สมาชิกและ 1 ผู้เยี่ยมชม)

     

กฎการโพสต์ข้อความ

  • ท่าน ไม่สามารถ ตั้งกระทู้ใหม่ได้
  • ท่าน ไม่สามารถ ตอบกระทู้ได้
  • ท่าน ไม่สามารถ แนบไฟล์ได้
  • ท่าน ไม่สามารถ แก้ไขข้อความโพสต์ได้
  • BB code สถานะ เปิด
  • Smilies สถานะ เปิด
  • [IMG] สถานะ เปิด
  • HTML สถานะ ปิด