+ ตอบกลับกระทู้
สรุปผลการค้นหา 1 ถึง 4 จากทั้งหมด 4
  1. #1
    Administrators รูปส่วนตัว Duckload.us
    สมัครเมื่อ
    Dec 2010
    โพสต์
    139,860
    Thanks
    7
    Thanked 146,381 Times in 63,686 Posts

    Lightbulb [NETFLIX] Blonde (2022) บลอนด์ [พากย์:ไทย5.1 +อังกฤษ5.1][SUB:ไทย+อังกฤษ][1080i/p] [EAC-3][h264][ซับไทย NETFLIX PGS+Vobsub+SRT]



    2022 | 18+ | 2 ชั่วโมง 47 นาที | ภาพยนตร์จากหนังสือ

    เธอคือดาวค้างฟ้า ขาประจำแทบลอยด์ และดาราสาวสุดเซ็กซี่ ทุกคนต่างก็รู้จักมาริลีน มอนโร แต่กลับไม่มีใครมองเห็นนอร์ม่า จีน นักแสดงสาว อนา เดอ อาร์มาส รับบทนำในผลงานดราม่าที่ถ่ายทอดชีวิตส่วนตัวซึ่งเต็ม ไปด้วยปัญหาจากตัวตนอีกด้าน ที่ซับซ้อนและเปราะบางของไอคอนแห่งฮอลลีวูด


    นักแสดงนำ:อนา เดอ อาร์มาส,เอเดรียน โบรดี้,บ็อบบี้ คานาวาลี


    Format : Matroska
    Format version : Version 4 / Version 2
    File size : 9.22 GiB
    Duration : 2 h 47 min
    Overall bit rate mode : Variable
    Overall bit rate : 7 884 kb/s
    Movie name : [email protected]
    Encoded date : UTC 2022-09-28 11:05:52
    Writing application : mkvmerge v63.0.0 ('Everything') 64-bit
    Writing library : libebml v1.4.2 + libmatroska v1.6.4
    Cover : Yes
    Attachments : cover.png

    Video
    ID : 1
    Format : AVC
    Format/Info : Advanced Video Codec
    Format profile : [email protected]
    Format settings, CABAC : Yes
    Format settings, RefFrames : 4 frames
    Codec ID : V_MPEG4/ISO/AVC
    Duration : 2 h 47 min
    Bit rate mode : Variable
    Bit rate : 6 433 kb/s
    Maximum bit rate : 20.0 Mb/s
    Width : 1 920 pixels
    Height : 1 080 pixels
    Display aspect ratio : 16:9
    Frame rate mode : Constant
    Frame rate : 24.000 FPS
    Color space : YUV
    Chroma subsampling : 4:2:0
    Bit depth : 8 bits
    Scan type : Progressive
    Bits/(Pixel*Frame) : 0.129
    Stream size : 7.53 GiB (82%)
    Writing library : x264 core 148 r2727 7d026e8
    Encoding settings : cabac=1 / ref=4 / deblock=1:0:0 / analyse=0x3:0x111 / me=umh / subme=10 / psy=1 / psy_rd=1.00:0.00 / mixed_ref=1 / me_range=120 / chroma_me=1 / trellis=2 / 8x8dct=1 / cqm=0 / deadzone=21,11 / fast_pskip=1 / chroma_qp_offset=-2 / threads=8 / lookahead_threads=2 / sliced_threads=0 / nr=0 / decimate=1 / interlaced=0 / bluray_compat=0 / stitchable=1 / constrained_intra=0 / bframes=16 / b_pyramid=2 / b_adapt=2 / b_bias=0 / direct=3 / weightb=1 / open_gop=0 / weightp=2 / keyint=240 / keyint_min=121 / scenecut=0 / intra_refresh=0 / rc_lookahead=240 / rc=crf / mbtree=1 / crf=16.0 / qcomp=0.50 / qpmin=6 / qpmax=51 / qpstep=4 / vbv_maxrate=20000 / vbv_bufsize=25000 / crf_max=0.0 / nal_hrd=vbr / filler=0 / ip_ratio=1.40 / aq=1:0.80
    Default : Yes
    Forced : No

    Audio #1
    ID : 2
    Format : E-AC-3
    Format/Info : Enhanced Audio Coding 3
    Format settings, Endianness : Big
    Codec ID : A_EAC3
    Duration : 2 h 47 min
    Bit rate mode : Constant
    Bit rate : 640 kb/s
    Channel(s) : 6 channels
    Channel positions : Front: L C R, Side: L R, LFE
    Sampling rate : 48.0 kHz
    Frame rate : 187.500 FPS (256 SPF)
    Compression mode : Lossy
    Stream size : 767 MiB (8%)
    Title : Thai-DDP 5.1
    Language : Thai
    Service kind : Complete Main
    Default : Yes
    Forced : Yes

    Audio #2
    ID : 3
    Format : E-AC-3
    Format/Info : Enhanced Audio Coding 3
    Format profile : E-AC-3+Atmos / E-AC-3
    Format settings, Endianness : Big
    Codec ID : A_EAC3
    Duration : 2 h 47 min
    Bit rate mode : Constant
    Bit rate : 768 kb/s
    Channel(s) : 15 objects / 6 channels
    Channel positions : 15 objects / Front: L C R, Side: L R, LFE
    Sampling rate : 48.0 kHz
    Frame rate : 187.500 FPS (256 SPF)
    Compression mode : Lossy
    Stream size : 920 MiB (10%)
    Title : English-DDP 5.1+Atmos
    Language : English
    Service kind : Complete Main
    Default : Yes
    Forced : No

    Text #1
    ID : 4
    Format : PGS
    Muxing mode : zlib
    Codec ID : S_HDMV/PGS
    Codec ID/Info : Picture based subtitle format used on BDs/HD-DVDs
    Duration : 2 h 45 min
    Bit rate : 938 b/s
    Count of elements : 72
    Stream size : 1.11 MiB (0%)
    Title : Thai-FORCED PGS From Original NETFLIX
    Language : Thai
    Default : Yes
    Forced : No

    Text #2
    ID : 5
    Format : VobSub
    Muxing mode : zlib
    Codec ID : S_VOBSUB
    Codec ID/Info : Picture based subtitle format used on DVDs
    Duration : 2 h 45 min
    Bit rate : 184 b/s
    Count of elements : 36
    Stream size : 224 KiB (0%)
    Title : Thai-FORCED VOBSUB From Original NETFLIX
    Language : Thai
    Default : Yes
    Forced : No

    Text #3
    ID : 6
    Format : PGS
    Muxing mode : zlib
    Codec ID : S_HDMV/PGS
    Codec ID/Info : Picture based subtitle format used on BDs/HD-DVDs
    Duration : 2 h 45 min
    Bit rate : 22.5 kb/s
    Count of elements : 2730
    Stream size : 26.6 MiB (0%)
    Title : Thai-PGS NETFLIX [Angsana]
    Language : Thai
    Default : Yes
    Forced : No

    Text #4
    ID : 7
    Format : PGS
    Muxing mode : zlib
    Codec ID : S_HDMV/PGS
    Codec ID/Info : Picture based subtitle format used on BDs/HD-DVDs
    Duration : 2 h 45 min
    Bit rate : 32.2 kb/s
    Count of elements : 2730
    Stream size : 38.1 MiB (0%)
    Title : Thai-PGS From Original NETFLIX
    Language : Thai
    Default : Yes
    Forced : No

    Text #5
    ID : 8
    Format : VobSub
    Muxing mode : zlib
    Codec ID : S_VOBSUB
    Codec ID/Info : Picture based subtitle format used on DVDs
    Duration : 2 h 45 min
    Bit rate : 5 471 b/s
    Count of elements : 1365
    Stream size : 6.47 MiB (0%)
    Title : Thai-VOBSUB NETFLIX [Angsana]
    Language : Thai
    Default : Yes
    Forced : No

    Text #6
    ID : 9
    Format : VobSub
    Muxing mode : zlib
    Codec ID : S_VOBSUB
    Codec ID/Info : Picture based subtitle format used on DVDs
    Duration : 2 h 45 min
    Bit rate : 6 297 b/s
    Count of elements : 1365
    Stream size : 7.45 MiB (0%)
    Title : Thai-VOBSUB From Original NETFLIX
    Language : Thai
    Default : Yes
    Forced : No

    Text #7
    ID : 10
    Format : UTF-8
    Codec ID : S_TEXT/UTF8
    Codec ID/Info : UTF-8 Plain Text
    Duration : 2 h 45 min
    Bit rate : 2 b/s
    Count of elements : 36
    Stream size : 2.53 KiB (0%)
    Title : Thai-FORCED SRT
    Language : Thai
    Default : Yes
    Forced : No

    Text #8
    ID : 11
    Format : UTF-8
    Codec ID : S_TEXT/UTF8
    Codec ID/Info : UTF-8 Plain Text
    Duration : 2 h 45 min
    Bit rate : 76 b/s
    Count of elements : 1365
    Stream size : 92.7 KiB (0%)
    Title : Thai-SRT
    Language : Thai
    Default : Yes
    Forced : No

    Text #9
    ID : 12
    Format : UTF-8
    Codec ID : S_TEXT/UTF8
    Codec ID/Info : UTF-8 Plain Text
    Duration : 2 h 38 min
    Bit rate : 44 b/s
    Count of elements : 1687
    Stream size : 51.2 KiB (0%)
    Title : English-SRT
    Language : English
    Default : Yes
    Forced : No












    Download:filecondo
    http://www.filecondo.com/dl.php?f=57c3bf1ODVll

    Download:cornfile
    ทีมงาน Duckload ขอระงับการอัพไฟล์ใหม่ๆ ขึ้น cornfile ทั้งหมด Click!!

  2. The Following 5 Users Say Thank You to Duckload.us For This Useful Post:

    jackjangri (09-30-2022), Jodz14 (09-30-2022), kappa (09-30-2022), noi54 (10-01-2022), sawara (10-02-2022)

  3. #2
    I'm donate !
    สมัครเมื่อ
    Jun 2011
    โพสต์
    568
    Thanks
    717
    Thanked 40 Times in 29 Posts
    thankyou...

  4. #3
    Senior Member
    สมัครเมื่อ
    Dec 2013
    โพสต์
    698
    Thanks
    648
    Thanked 0 Times in 0 Posts
    ขอบคุณครับบ

  5. #4
    Senior Member
    สมัครเมื่อ
    Jul 2013
    โพสต์
    3,529
    Thanks
    0
    Thanked 0 Times in 0 Posts
    ขอบคุณครับ

+ ตอบกลับกระทู้

ข้อมูลกระทู้

Users Browsing this Thread

ในขณะนี้มี 1 ท่านดูกระทู้อยู่. (0 สมาชิกและ 1 ผู้เยี่ยมชม)

     

กฎการโพสต์ข้อความ

  • ท่าน ไม่สามารถ ตั้งกระทู้ใหม่ได้
  • ท่าน ไม่สามารถ ตอบกระทู้ได้
  • ท่าน ไม่สามารถ แนบไฟล์ได้
  • ท่าน ไม่สามารถ แก้ไขข้อความโพสต์ได้
  • BB code สถานะ เปิด
  • Smilies สถานะ เปิด
  • [IMG] สถานะ เปิด
  • HTML สถานะ ปิด