ซีรี่ย์เกาหลี: Beyond Evil
ชื่อภาษาไทย: ปมปีศาจ, เหี้ยมเกินมนุษย์
ประเภท: Drama, Thriller
นักแสดง: Shin Ha Kyun, Yeo Jin Goo, Choi Dae Hoon, Kim Shin Rok, Choi Jin Ho
จำนวนตอน: 16
เขียนบทโดย: Kim Soo Jin
ผู้กำกับ: LSim Na Yeon
ออกอากาศทางสถานีโทรทัศน์: VIU
เริ่มออกอากาศ: 28 กันยายน 2564
เวลาออกอากาศ: ทุกวันเสาร์ - อาทิตย์ เวลา 08:00 น.
นักแสดง:
Shin Ha Kyoon as Lee Dong Shik (40, sergeant at Manyang Police Substation)
Lee Do Hyun as 20s Dong Shik
Yeo Jin Goo as Han Joo Won (27, lieutenant at Manyang Police Substation)
Jung Hyun Joon as child Joo Won
Choi Sung Eun as Yoo Jae Yi (28, owner of Manyang Butcher Shop)
Choi Dae Hoon as Park Jung Je (40, lieutenant of investigation support team at Munju Police Station)
Kim Shin Rok as Oh Ji Hwa (40, team leader of the crime squad at Munju Police Station)
Manyang Police Substation
Chun Ho Jin as Nam Sang Bae (59, chief of Manyang Police Substation)
Son Sang Kyu as Jo Kil Koo (52, sergeant)
Baek Suk Kwang as Hwang Kwang Young (34, lieutenant)
Nam Yoon Soo as Oh Ji Hoon (26, constable)
Manyang Residents
Gil Hae Yun as Do Hae Won (65, Park Jung Je's mother)
Lee Kyu Hoe as Kang Jin Mook (45, owner of Manyang Supermarket)
Kang Min Ah as Kang Min Jung (21, student)
Kim Hi Eo Ra as Bang Joo Sun
Jung Jae Jin as Bang Ho Chul (Bang Joo Sun's father)
Moon Joo Yun as Lee Yoo Yun (Lee Dong Shik's younger fraternal twin sister)
Park Myung Shin as Lee Dong Shik's mother
The Outsiders
Heo Sung Tae as Lee Chang Jin (49, CEO of JL Construction)
Choi Jin Ho as Han Ki Hwan (58, Han Joo Won's father)
Park Ji Hoon as Kwon Hyuk (34, Munju City prosecutor)
Shim Wan Joon as Kang Dong Soo
Jung Kyu Soo as Jung Chul Moon
Park Bo Kyung as Im Sun Nyuh
Cha Chung Hwa as Lee Geum Hwa
Jo Ji Seung as Yoon Mi Hye
Jang Sung Bum as Lee Sang Yub
Won Mi Won as restaurant owner at Manyang
Woo Jung Won as Han Joo Won's mother
Sysopsis: ซีรีส์แนวระทึกขวัญ-จิตวิทยา-สืบสวนสอบสวน ที่เล่าเรื่องราวซึ่งเกิดขึ้นใน ‘มันยาง’ เมืองเล็ก ๆ แห่งหนึ่ง ที่กำลังมีแผนจะพัฒนาและสร้างการจดจำครั้งใหม่ให้เป็ นเมืองศิวิไลซ์ปลอดอาชญากรรม แต่ทว่าความฝันครั้งใหม่นี้ดันไม่ได้สำเร็จง่าย ๆ อย่างที่คิด เมื่อเกิดเหตุฆาตกรรมต่อเนื่องอันน่าสะพรึงขึ้น หลังพบศพของหญิงสาวหลายคนถูกฆาตกรรมอย่างไร้ความปราน ี ที่ดูท่าแล้วมีลักษณะคล้ายคลึงกับคดีคนหายคดีหนึ่งซึ ่งเกิดขึ้นในเมืองแห่งนี้เมื่อ 20 ปีก่อน อันเป็นที่โจษจันไปทั่วประเทศ เพราะพี่ชายฝาแฝดของเหยื่อผู้หายสาบสูญ อย่าง อีดงชิก (รับบทโดย ชินฮาคยูน) นายตำรวจสุดบ้าบิ่นฝีมือดี กลับเป็นผู้ต้องสงสัยอันดับหนึ่งเสียได้ งานนี้สารรวัตรหนุ่มไฟแรง ฮันจูวอน (รับบทโดย ยอจินกู) ที่เพิ่งย้ายมาประจำการในเมืองมันยาง จึงกลายเป็นอีกหนึ่งกุญแจสำคัญที่จะมาช่วยค้นหาปีศาจ ร้ายตัวจริงที่แฝงอยู่ มาติดตามชมกันได้ในซีรี่ย์เกาหลี Beyond Evil ปมปีศาจ
Credit: franky

General
Unique ID : 233338111864656047460438188128240905390 (0xAF8B49225EAD157F235303BDE7A7ACAE)
Complete name : C:UsersfrankyDownloadsBeyond Evil ปมปีศาจBeyond.Evil.2021.S01E09.1080p.NF.WEB-DL.DDP2.0.x264.mkv
Format : Matroska
Format version : Version 4
File size : 1.88 GiB
Duration : 1 h 0 min
Overall bit rate : 4 419 kb/s
Encoded date : UTC 2021-09-19 03:01:12
Writing application : mkvmerge v19.0.0 ('Brave Captain') 64-bit
Writing library : libebml v1.3.5 + libmatroska v1.4.8

Video
ID : 1
Format : AVC
Format/Info : Advanced Video Codec
Format profile : [email protected]
Format settings : 1 Ref Frames
Format settings, CABAC : No
Format settings, Reference fra : 1 frame
Codec ID : V_MPEG4/ISO/AVC
Duration : 1 h 0 min
Bit rate : 4 078 kb/s
Width : 1 920 pixels
Height : 1 080 pixels
Display aspect ratio : 16:9
Frame rate mode : Constant
Frame rate : 23.976 (24000/1001) FPS
Color space : YUV
Chroma subsampling : 4:2:0
Bit depth : 8 bits
Scan type : Progressive
Bits/(Pixel*Frame) : 0.082
Stream size : 1.73 GiB (92%)
Default : Yes
Forced : No

Audio #1
ID : 2
Format : AC-3
Format/Info : Audio Coding 3
Commercial name : Dolby Digital
Codec ID : A_AC3
Duration : 1 h 0 min
Bit rate mode : Constant
Bit rate : 192 kb/s
Channel(s) : 2 channels
Channel layout : L R
Sampling rate : 48.0 kHz
Frame rate : 31.250 FPS (1536 SPF)
Compression mode : Lossy
Stream size : 83.6 MiB (4%)
Language : Thai
Service kind : Complete Main
Default : Yes
Forced : No

Audio #2
ID : 3
Format : E-AC-3
Format/Info : Enhanced AC-3
Commercial name : Dolby Digital Plus
Codec ID : A_EAC3
Duration : 1 h 0 min
Bit rate mode : Constant
Bit rate : 128 kb/s
Channel(s) : 2 channels
Channel layout : L R
Sampling rate : 48.0 kHz
Frame rate : 31.250 FPS (1536 SPF)
Compression mode : Lossy
Stream size : 55.7 MiB (3%)
Language : Korean
Service kind : Complete Main
Default : No
Forced : No

Text #1
ID : 4
Format : UTF-8
Codec ID : S_TEXT/UTF8
Codec ID/Info : UTF-8 Plain Text
Duration : 1 h 0 min
Bit rate : 163 b/s
Count of elements : 892
Stream size : 71.8 KiB (0%)
Language : Thai
Default : Yes
Forced : No

Text #2
ID : 5
Format : PGS
Muxing mode : zlib
Codec ID : S_HDMV/PGS
Codec ID/Info : Picture based subtitle format used on BDs/HD-DVDs
Duration : 1 h 0 min
Bit rate : 30.8 kb/s
Count of elements : 1784
Stream size : 13.2 MiB (1%)
Language : Thai
Default : No
Forced : No



Beyond.Evil.2021.S01E16.1080p.AMZN.APP-DL.KOREAN.DDP2.0.h264.mkv
http://www.filecondo.com/dl.php?f=dbe04e1OEB5w

Beyond.Evil.2021.S01E15.1080p.AMZN.APP-DL.KOREAN.DDP2.0.h264.mkv
http://www.filecondo.com/dl.php?f=082cb31OEB4w

Beyond.Evil.2021.S01E14.1080p.AMZN.APP-DL.KOREAN.DDP2.0.h264.mkv
http://www.filecondo.com/dl.php?f=O32db71OEB3w

Beyond.Evil.2021.S01E13.1080p.AMZN.APP-DL.KOREAN.DDP2.0.h264.mkv
http://www.filecondo.com/dl.php?f=ae9e541OEB2u

Beyond.Evil.2021.S01E12.1080p.AMZN.APP-DL.KOREAN.DDP2.0.h264.mkv
http://www.filecondo.com/dl.php?f=lc1e381OEB1w

Beyond.Evil.2021.S01E11.1080p.AMZN.APP-DL.KOREAN.DDP2.0.h264.mkv
http://www.filecondo.com/dl.php?f=h8df631OEB0F

Beyond.Evil.2021.S01E10.1080p.AMZN.APP-DL.KOREAN.DDP2.0.h264.mkv
http://www.filecondo.com/dl.php?f=zb21651OEB0e

Beyond.Evil.2021.S01E09.1080p.AMZN.APP-DL.KOREAN.DDP2.0.h264.mkv
http://www.filecondo.com/dl.php?f=Rabc281OEAZd

Beyond.Evil.2021.S01E08.1080p.AMZN.APP-DL.KOREAN.DDP2.0.h264.mkv
http://www.filecondo.com/dl.php?f=zc9b011OEAXh

Beyond.Evil.2021.S01E07.1080p.AMZN.APP-DL.KOREAN.DDP2.0.h264.mkv
http://www.filecondo.com/dl.php?f=Zab04b1OEAUT

Beyond.Evil.2021.S01E06.1080p.AMZN.APP-DL.KOREAN.DDP2.0.h264.mkv
http://www.filecondo.com/dl.php?f=s4762f1OEASU

Beyond.Evil.2021.S01E05.1080p.AMZN.APP-DL.KOREAN.DDP2.0.h264.mkv
http://www.filecondo.com/dl.php?f=wea1711OEARN

Beyond.Evil.2021.S01E04.1080p.AMZN.APP-DL.KOREAN.DDP2.0.h264.mkv
http://www.filecondo.com/dl.php?f=q67d591OEAQO

Beyond.Evil.2021.S01E03.1080p.AMZN.APP-DL.KOREAN.DDP2.0.h264.mkv
http://www.filecondo.com/dl.php?f=Z286151OEAPR

Beyond.Evil.2021.S01E02.1080p.AMZN.APP-DL.KOREAN.DDP2.0.h264.mkv
http://www.filecondo.com/dl.php?f=k6e0db1OEAOS

Beyond.Evil.2021.S01E01.1080p.AMZN.APP-DL.KOREAN.DDP2.0.h264.mkv
http://www.filecondo.com/dl.php?f=Jc73631OEANW