Video
ID : 1
Format : AVC
Format/Info : Advanced Video Codec
Format profile : [email protected]
Format settings : CABAC / 3 Ref Frames
Format settings, CABAC : Yes
Format settings, Reference frames : 3 frames
Codec ID : V_MPEG4/ISO/AVC
Duration : 1 h 17 min
Bit rate mode : Variable
Bit rate : 1 912 kb/s
Nominal bit rate : 2 150 kb/s
Maximum bit rate : 3 225 kb/s
Width : 1 920 pixels
Height : 1 080 pixels
Display aspect ratio : 16:9
Frame rate mode : Constant
Frame rate : 23.976 (24000/1001) FPS
Color space : YUV
Chroma subsampling : 4:2:0
Bit depth : 8 bits
Scan type : Progressive
Bits/(Pixel*Frame) : 0.038
Stream size : 1.04 GiB (94%)
Writing library : x264 core 148 r2727 7d026e8
Encoding settings : cabac=1 / ref=3 / deblock=1:0:0 / analyse=0x1:0x111 / me=umh / subme=10 / psy=1 / psy_rd=1.00:0.00 / mixed_ref=1 / me_range=24 / chroma_me=1 / trellis=2 / 8x8dct=0 / cqm=0 / deadzone=21,11 / fast_pskip=1 / chroma_qp_offset=-2 / threads=8 / lookahead_threads=1 / sliced_threads=0 / nr=0 / decimate=1 / interlaced=0 / bluray_compat=0 / stitchable=1 / constrained_intra=0 / bframes=2 / b_pyramid=0 / b_adapt=2 / b_bias=0 / direct=3 / weightb=1 / open_gop=0 / weightp=2 / keyint=250 / keyint_min=23 / scenecut=0 / intra_refresh=0 / rc_lookahead=48 / rc=2pass / mbtree=1 / bitrate=2150 / ratetol=1.0 / qcomp=0.50 / qpmin=6 / qpmax=51 / qpstep=4 / cplxblur=20.0 / qblur=0.5 / vbv_maxrate=3225 / vbv_bufsize=4300 / nal_hrd=vbr / filler=0 / ip_ratio=1.40 / aq=1:1.00
Language : Korean
Default : Yes
Forced : No

Audio
ID : 2
Format : E-AC-3
Format/Info : Enhanced AC-3
Commercial name : Dolby Digital Plus
Codec ID : A_EAC3
Duration : 1 h 17 min
Bit rate mode : Constant
Bit rate : 128 kb/s
Channel(s) : 2 channels
Channel layout : L R
Sampling rate : 48.0 kHz
Frame rate : 31.250 FPS (1536 SPF)
Compression mode : Lossy
Stream size : 71.0 MiB (6%)
Language : Korean
Service kind : Complete Main
Default : Yes
Forced : No

Text
ID : 3
Format : UTF-8
Codec ID : S_TEXT/UTF8
Codec ID/Info : UTF-8 Plain Text
Duration : 1 h 17 min
Bit rate : 151 b/s
Count of elements : 973
Stream size : 85.5 KiB (0%)
Language : Thai
Default : No
Forced : No

ดาวน์โหลดไฟล์จาก mega.nz ตามลิ้งก์ด้านล่าง

Little.Women.S01E01.1080p.NF.WEB-DL.DDP2.0.x264-GLASSY.mkv
https://l4s.cc/bMP0

Little.Women.S01E02.1080p.NF.WEB-DL.DDP2.0.x264-GLASSY.mkv
https://l4s.cc/bMPA

Little.Women.S01E03.1080p.NF.WEB-DL.DDP2.0.x264-GLASSY.mkv
https://l4s.cc/bMPB

Little.Women.S01E04.1080p.NF.WEB-DL.DDP2.0.x264-GLASSY.mkv
https://l4s.cc/bMPM

Little.Women.S01E05.1080p.NF.WEB-DL.DDP2.0.x264-GLASSY.mkv
https://l4s.cc/bMPU

Little.Women.S01E06.1080p.NF.WEB-DL.DDP2.0.x264-GLASSY.mkv
https://l4s.cc/bMPW

Little.Women.S01E07.1080p.NF.WEB-DL.DDP2.0.x264-GLASSY.mkv
https://l4s.cc/bMPS

Little.Women.S01E08.1080p.NF.WEB-DL.DDP2.0.x264-GLASSY.mkv
https://l4s.cc/bMPr

Little.Women.S01E09.1080p.NF.WEB-DL.DDP2.0.x264-GLASSY.mkv
https://l4s.cc/bMPs

Little.Women.S01E10.1080p.NF.WEB-DL.DDP2.0.x264-GLASSY.mkv
https://l4s.cc/bMPt

Little.Women.S01E11.1080p.NF.WEB-DL.DDP2.0.x264-GLASSY.mkv
https://l4s.cc/bMPu

Little.Women.S01E12.1080p.NF.WEB-DL.DDP2.0.x264-GLASSY.mkv
https://l4s.cc/bMPv