+ ตอบกลับกระทู้
สรุปผลการค้นหา 1 ถึง 3 จากทั้งหมด 3
  1. #1
    Administrators รูปส่วนตัว Duckload.us
    สมัครเมื่อ
    Dec 2010
    โพสต์
    139,885
    Thanks
    7
    Thanked 146,393 Times in 63,688 Posts

    Lightbulb [ญี่ปุ่น]-One Piece Film Red - วันพีซ ฟิล์ม เรด [พากย์ไทยโรง-อังกฤษ-ญี่ปุ่น][ซับอังกฤษ]-HDTV.H.264.1080p. [rip from Master]-[พากย์ไทย]



    เรื่องย่อ

    เรื่องราวของ “อูตะ” หญิงสาวที่ได้รับการกล่าวขานว่าเป็นเจ้าหญิงแห่งเสีย งเพลง ได้ปรากฏตัวต่อสาธารณะและแฟนเพลงของเธอเป็นครั้งแรกเ พื่อแสดงสดในงานคอนเสิร์ต ซึ่งลูฟี่กับกลุ่มโจรสลัดหมวกฟางเองก็ได้มาชมเช่นกัน แต่เหตุการณ์ไม่คาดฝันก็เกิดขึ้น ทำให้ความลับของ อูตะ ได้ถูกเปิดเผยว่าแท้จริงแล้วเธอคือลูกสาวของ แชงค์ โจรสลัดผมแดง ทั้งคู่มีเรื่องราวเบื้องหลังในอดีตที่ไม่มีใครเคยล่ วงรู้ ก่อนที่เหตุการณ์บางอย่างจะเกิดขึ้นและทำให้พวกเขาต้ องแยกจากกัน …

    General

    Unique ID : 257271154473990001446442164630608759953 (0xC18C9F3CE3C3A7E5B1557A34D0854C91)

    Complete name : D:2One Piece Film Red HDTS เสียงไทยโรง(เสียงเดิม)ไม่ใช้อันใหม่.mkv

    Format : Matroska

    Format version : Version 4

    File size : 5.86 GiB

    Duration : 1 h 55 min

    Overall bit rate mode : Variable

    Overall bit rate : 7 299 kb/s

    Movie name : [Not Meme-Rips] One Piece Film Red [1080p HDTS][Dual-Audio ~ Eng + Jap][English Sub]

    Encoded date : UTC 2022-11-14 10:57:25

    Writing application : mkvmerge v55.0.0 ('Waiting For Space') 64-bit

    Writing library : libebml v1.4.2 + libmatroska v1.6.4 / Lavf58.76.100

    Video

    ID : 1

    Format : AVC

    Format/Info : Advanced Video Codec

    Format profile : [email protected]

    Format settings : CABAC / 4 Ref Frames

    Format settings, CABAC : Yes

    Format settings, Reference fra : 4 frames

    Codec ID : V_MPEG4/ISO/AVC

    Duration : 1 h 55 min

    Bit rate mode : Constant

    Bit rate : 6 500 kb/s

    Width : 1 920 pixels

    Height : 970 pixels

    Display aspect ratio : 1.979

    Frame rate mode : Constant

    Frame rate : 24.000 FPS

    Color space : YUV

    Chroma subsampling : 4:2:0

    Bit depth : 8 bits

    Scan type : Progressive

    Bits/(Pixel*Frame) : 0.145

    Stream size : 5.17 GiB (88%)

    Title : 1080p HDTS

    Writing library : x264 core 164 r3095 baee400

    Encoding settings : cabac=1 / ref=4 / deblock=1:-2:-2 / analyse=0x3:0x133 / me=umh / subme=10 / psy=1 / psy_rd=1.00:0.25 / mixed_ref=1 / me_range=24 / chroma_me=1 / trellis=2 / 8x8dct=1 / cqm=0 / deadzone=6,6 / fast_pskip=1 / chroma_qp_offset=-4 / threads=15 / lookahead_threads=2 / sliced_threads=0 / nr=0 / decimate=0 / interlaced=0 / bluray_compat=0 / constrained_intra=0 / bframes=8 / b_pyramid=2 / b_adapt=2 / b_bias=0 / direct=3 / weightb=1 / open_gop=0 / weightp=2 / keyint=250 / keyint_min=24 / scenecut=40 / intra_refresh=0 / rc_lookahead=60 / rc=2pass / mbtree=1 / bitrate=6500 / ratetol=1.0 / qcomp=0.80 / qpmin=0 / qpmax=69 / qpstep=4 / cplxblur=20.0 / qblur=0.5 / vbv_maxrate=6500 / vbv_bufsize=13000 / nal_hrd=cbr / filler=1 / ip_ratio=1.10 / aq=1:0.50

    Default : Yes

    Forced : No

    Color range : Limited

    Color primaries : BT.709

    Transfer characteristics : BT.709

    Matrix coefficients : BT.709

    Audio #1

    ID : 2

    Format : FLAC

    Format/Info : Free Lossless Audio Codec

    Codec ID : A_FLAC

    Duration : 1 h 54 min

    Bit rate mode : Variable

    Bit rate : 380 kb/s

    Channel(s) : 2 channels

    Channel layout : L R

    Sampling rate : 48.0 kHz

    Frame rate : 11.719 FPS (4096 SPF)

    Bit depth : 16 bits

    Compression mode : Lossless

    Delay relative to video : -5 ms

    Stream size : 313 MiB (5%)

    Title : Thai(Rong)By.rezero235789

    Writing library : libFLAC 20080709 (UTC 2008-07-09)

    Language : Thai

    Default : Yes

    Forced : No

    Audio #2

    ID : 3

    Format : AC-3

    Format/Info : Audio Coding 3

    Commercial name : Dolby Digital

    Codec ID : A_AC3

    Duration : 1 h 54 min

    Bit rate mode : Constant

    Bit rate : 320 kb/s

    Channel(s) : 2 channels

    Channel layout : L R

    Sampling rate : 48.0 kHz

    Frame rate : 31.250 FPS (1536 SPF)

    Bit depth : 32 bits

    Compression mode : Lossy

    Delay relative to video : -5 ms

    Stream size : 263 MiB (4%)

    Title : English

    Language : English

    Service kind : Complete Main

    Default : No

    Forced : No

    Audio #3

    ID : 4

    Format : AAC LC

    Format/Info : Advanced Audio Codec Low Complexity

    Codec ID : A_AAC-2

    Duration : 1 h 50 min

    Bit rate : 161 kb/s

    Channel(s) : 2 channels

    Channel layout : L R

    Sampling rate : 44.1 kHz

    Frame rate : 43.066 FPS (1024 SPF)

    Compression mode : Lossy

    Delay relative to video : 16 ms

    Stream size : 127 MiB (2%)

    Title : Japanese

    Language : Japanese

    Default : No

    Forced : No

    Text #1

    ID : 5

    Format : UTF-8

    Codec ID : S_TEXT/UTF8

    Codec ID/Info : UTF-8 Plain Text

    Duration : 1 h 54 min

    Bit rate : 75 b/s

    Count of elements : 1412

    Stream size : 63.9 KiB (0%)

    Title : [Zodiac] English (Restyle)

    Language : English

    Default : No

    Forced : No

    Text #2

    ID : 6

    Format : UTF-8

    Codec ID : S_TEXT/UTF8

    Codec ID/Info : UTF-8 Plain Text

    Duration : 1 h 54 min

    Bit rate : 59 b/s

    Count of elements : 1413

    Stream size : 50.3 KiB (0%)

    Title : [Zodiac] English

    Language : English

    Default : No

    Forced : No




    One_Piece_Film_Red_HDTS.mkv
    http://www.filecondo.com/dl.php?f=P9b7041OVByD
    6.3 GB

  2. The Following 3 Users Say Thank You to Duckload.us For This Useful Post:

    rakterkonne (11-18-2022), santanmoon (11-18-2022), Wesker_TOT (11-18-2022)

  3. #2
    I'm donate !
    สมัครเมื่อ
    Feb 2017
    โพสต์
    46
    Thanks
    77
    Thanked 0 Times in 0 Posts
    ขอบคุณครับ

  4. #3
    Senior Member
    สมัครเมื่อ
    Dec 2013
    โพสต์
    4,172
    Thanks
    6,072
    Thanked 0 Times in 0 Posts
    ขอบคุณครับ...

+ ตอบกลับกระทู้

ข้อมูลกระทู้

Users Browsing this Thread

ในขณะนี้มี 1 ท่านดูกระทู้อยู่. (0 สมาชิกและ 1 ผู้เยี่ยมชม)

     

กฎการโพสต์ข้อความ

  • ท่าน ไม่สามารถ ตั้งกระทู้ใหม่ได้
  • ท่าน ไม่สามารถ ตอบกระทู้ได้
  • ท่าน ไม่สามารถ แนบไฟล์ได้
  • ท่าน ไม่สามารถ แก้ไขข้อความโพสต์ได้
  • BB code สถานะ เปิด
  • Smilies สถานะ เปิด
  • [IMG] สถานะ เปิด
  • HTML สถานะ ปิด