+ ตอบกลับกระทู้
สรุปผลการค้นหา 1 ถึง 4 จากทั้งหมด 4
  1. #1
    Administrators รูปส่วนตัว Duckload.us
    สมัครเมื่อ
    Dec 2010
    โพสต์
    141,284
    Thanks
    7
    Thanked 147,955 Times in 64,426 Posts

    Lightbulb [จีน]-Warrior of Future (2022) นักรบแห่งอนาคต [เสียงไทย5.1-เสียงอังกฤษ5.1-เสียงกวางตุ้ง5.1] [บรรยายไทย-อังกฤษ]-WEB-DL.H.264.1080p. [Netflix (web-dl)]-[พากย์ไทย (Master)]



    Warriors of Future (2022) เป็นเรื่องราวที่ โลกของในอนาคตอันไม่ไกลเมื่อปี 2055 ในปีนั้นได้เกิดสงครามทำให้โลกเกิดความเสียหายครั้งใ หญ่ จากนั้นผลกระทบที่ตามมาก็คือ ภาวะโลกร้อนและภัยพิบัติได้ทำลายบรรยากาศโดยสิ้นเชิง เด็กที่เกิดมาแต่ละคนล้วนเต็มไปด้วยความเสี่ยง บางก็พิการมาตั้งแต่กำเนิดและบางคนก็ตายอย่างรวดเร็ว จากนั้นมนุษย์โลกจึงได้สร้างตาข่ายลอยฟ้า เพื่อที่จะปกป้องและช่วยเหลือส่วนที่เหลือให้ได้มากท ี่สุด

    Format : Matroska
    Format version : Version 4
    File size : 4.80 GiB
    Duration : 1 h 41 min
    Overall bit rate mode : Variable
    Overall bit rate : 6 786 kb/s
    Movie name : นักรบแห่งอนาคต
    Description : เมื่ออุกกาบาตที่มาพร้อมพืชที่มีอานุภาพทำลายล้างตกล งมาบนโลก หน่วยรบพลีชีพมีเวลาเพียงไม่กี่ชั่วโมง ที่จะช่วยเมืองที่บอบช้ำจากวันสิ้นโลกให้พ้นจากการล่ มสลาย
    Encoded date : UTC 2022-12-02 09:11:55
    Writing application : mkvmerge v67.0.0 ('Under Stars') 64-bit
    Writing library : libebml v1.4.2 + libmatroska v1.6.4 / Lavf58.29.100
    Attachments : 81473627_1.jpg
    DATE : 2022

    Video
    ID : 1
    Format : AVC
    Format/Info : Advanced Video Codec
    Format profile : [email protected]
    Format settings : CABAC / 1 Ref Frames
    Format settings, CABAC : Yes
    Format settings, Reference frames : 1 frame
    Codec ID : V_MPEG4/ISO/AVC
    Duration : 1 h 41 min
    Bit rate mode : Variable
    Bit rate : 4 865 kb/s
    Maximum bit rate : 6 000 kb/s
    Width : 1 920 pixels
    Height : 1 080 pixels
    Display aspect ratio : 16:9
    Frame rate mode : Constant
    Frame rate : 24.000 FPS
    Color space : YUV
    Chroma subsampling : 4:2:0
    Bit depth : 8 bits
    Scan type : Progressive
    Bits/(Pixel*Frame) : 0.098
    Stream size : 3.44 GiB (72%)
    Default : No
    Forced : No

    Audio #1
    ID : 2
    Format : E-AC-3
    Format/Info : Enhanced AC-3
    Commercial name : Dolby Digital Plus
    Codec ID : A_EAC3
    Duration : 1 h 41 min
    Bit rate mode : Constant
    Bit rate : 640 kb/s
    Channel(s) : 6 channels
    Channel layout : L R C LFE Ls Rs
    Sampling rate : 48.0 kHz
    Frame rate : 31.250 FPS (1536 SPF)
    Bit depth : 32 bits
    Compression mode : Lossy
    Delay relative to video : -83 ms
    Stream size : 463 MiB (9%)
    Title : กวางตุ้ง [ต้นฉบับ]
    Service kind : Complete Main
    Default : No
    Forced : No

    Audio #2
    ID : 3
    Format : E-AC-3
    Format/Info : Enhanced AC-3
    Commercial name : Dolby Digital Plus
    Codec ID : A_EAC3
    Duration : 1 h 41 min
    Bit rate mode : Constant
    Bit rate : 640 kb/s
    Channel(s) : 6 channels
    Channel layout : L R C LFE Ls Rs
    Sampling rate : 48.0 kHz
    Frame rate : 31.250 FPS (1536 SPF)
    Bit depth : 32 bits
    Compression mode : Lossy
    Delay relative to video : -83 ms
    Stream size : 463 MiB (9%)
    Title : อังกฤษ
    Language : English
    Service kind : Complete Main
    Default : No
    Forced : No

    Audio #3
    ID : 4
    Format : E-AC-3
    Format/Info : Enhanced AC-3
    Commercial name : Dolby Digital Plus
    Codec ID : A_EAC3
    Duration : 1 h 41 min
    Bit rate mode : Constant
    Bit rate : 640 kb/s
    Channel(s) : 6 channels
    Channel layout : L R C LFE Ls Rs
    Sampling rate : 48.0 kHz
    Frame rate : 31.250 FPS (1536 SPF)
    Bit depth : 32 bits
    Compression mode : Lossy
    Delay relative to video : -83 ms
    Stream size : 463 MiB (9%)
    Title : ไทย
    Language : Thai
    Service kind : Complete Main
    Default : Yes
    Forced : No

    Text #1
    ID : 5
    Format : UTF-8
    Codec ID : S_TEXT/UTF8
    Codec ID/Info : UTF-8 Plain Text
    Duration : 1 h 29 min
    Bit rate : 37 b/s
    Count of elements : 834
    Stream size : 24.5 KiB (0%)
    Language : English
    Default : Yes
    Forced : No

    Text #2
    ID : 6
    Format : UTF-8
    Codec ID : S_TEXT/UTF8
    Codec ID/Info : UTF-8 Plain Text
    Duration : 1 h 31 min
    Bit rate : 45 b/s
    Count of elements : 1091
    Stream size : 30.3 KiB (0%)
    Default : No
    Forced : No

    Text #3
    ID : 7
    Format : UTF-8
    Codec ID : S_TEXT/UTF8
    Codec ID/Info : UTF-8 Plain Text
    Duration : 1 h 37 min
    Bit rate : 78 b/s
    Count of elements : 906
    Stream size : 55.8 KiB (0%)
    Language : Thai
    Default : No
    Forced : No





    โหลดแบบแบ่งไฟล์
    Warrior_of_Future_(2022)_นักรบแห่งอนาคต.part1.rar
    http://www.filecondo.com/dl.php?f=k1db281P14nv
    Warrior_of_Future_(2022)_นักรบแห่งอนาคต.part2.rar
    http://www.filecondo.com/dl.php?f=Hf1a201P14m6
    Warrior_of_Future_(2022)_นักรบแห่งอนาคต.part3.rar
    http://www.filecondo.com/dl.php?f=T385771P14kd

    โหลดแบบไฟล์เดี่ยว
    Warrior_of_Future_(2022)_นักรบแห่งอนาคต.mkv
    http://www.filecondo.com/dl.php?f=k24b7a1P15o4
    5.15 GB
    2022.Warriors_of_Future__นักรบแห่งอนาคต.mkv
    http://www.filecondo.com/dl.php?f=9789991P1mM2
    4.83 GB

  2. The Following 6 Users Say Thank You to Duckload.us For This Useful Post:

    Jodz14 (12-02-2022), masaomi (12-02-2022), noi54 (12-08-2022), sawara (12-09-2022), Timarat (12-02-2022), Wesker_TOT (01-13-2023)

  3. #2
    Senior Member
    สมัครเมื่อ
    Oct 2013
    โพสต์
    2,359
    Thanks
    0
    Thanked 0 Times in 0 Posts
    ขอบคุณครับ

  4. #3
    Senior Member
    สมัครเมื่อ
    Dec 2013
    โพสต์
    753
    Thanks
    710
    Thanked 0 Times in 0 Posts
    ขอบคุณครับบ

  5. #4
    Senior Member
    สมัครเมื่อ
    Dec 2013
    โพสต์
    4,607
    Thanks
    6,505
    Thanked 0 Times in 0 Posts
    ขอบคุณครับ...

+ ตอบกลับกระทู้

ข้อมูลกระทู้

Users Browsing this Thread

ในขณะนี้มี 1 ท่านดูกระทู้อยู่. (0 สมาชิกและ 1 ผู้เยี่ยมชม)

     

กฎการโพสต์ข้อความ

  • ท่าน ไม่สามารถ ตั้งกระทู้ใหม่ได้
  • ท่าน ไม่สามารถ ตอบกระทู้ได้
  • ท่าน ไม่สามารถ แนบไฟล์ได้
  • ท่าน ไม่สามารถ แก้ไขข้อความโพสต์ได้
  • BB code สถานะ เปิด
  • Smilies สถานะ เปิด
  • [IMG] สถานะ เปิด
  • HTML สถานะ ปิด