+ ตอบกลับกระทู้
สรุปผลการค้นหา 1 ถึง 9 จากทั้งหมด 9

Hybrid View

  1. #1
    Administrators รูปส่วนตัว Duckload.us
    สมัครเมื่อ
    Dec 2010
    โพสต์
    151,817
    Thanks
    7
    Thanked 158,780 Times in 69,420 Posts

    Lightbulb [ฝรั่ง]-Black Panther: Wakanda Forever (2022) [1080p IMAX WEB-DL]-[เสียง: ไทย DD+ 5.1 + อังกฤษ DD+ Atmos 5.1]-[Sub: ไทย + อังกฤษ SRT]-WEB-DL.H.264.1080p. [Master]-[พากย์ไทย บรรยายไทย]



    -เรื่องย่อ-
    ราชินีรามอนด้า (แองเจลา บาสเซตต์) ชูรี (เลทิเทีย ไรท์) เอ็มบาคู (วินสตัน ดุ๊ก) โอโคเย (ดาไน กูริรา) และ โดรา มิลาเจ (ฟลอเรนซ์ คาซัมบา) จะต้องร่วมต่อสู้เพื่อปกป้องประเทศของพวกเขาจากการแท รกแซงทางอำนาจหลังการสวรรคตของกษัตริย์ทีชัลล่าในระห ว่างที่ชาววาคานด้าพยายามอย่างหนักเพื่อที่จะก้าวต่อ ไป เหล่าฮีโร่จึงต้องร่วมมือกัน ด้วยความช่วยเหลือของ วอร์ด็อกนาเคีย (ลูพีตา ญองอ) และ เอเวอเร็ตต์ รอสส์ (มาร์ติน ฟรีแมน) ในการสร้างเส้นทางใหม่ให้กับวานคานด้า โดยมี เนมอร์ (เตนอช เวร์ตา) เป็นกษัตริย์แห่งอาณาจักรลับใต้ท้องทะเล

    Video
    ID : 1
    Format : AVC
    Format/Info : Advanced Video Codec
    Format profile : High@L4
    Format settings : CABAC / 4 Ref Frames
    Format settings, CABAC : Yes
    Format settings, Reference : 4 frames
    Codec ID : V_MPEG4/ISO/AVC
    Duration : 2 h 41 min
    Bit rate mode : Variable
    Bit rate : 6 157 kb/s
    Maximum bit rate : 12.7 Mb/s
    Width : 1 920 pixels
    Height : 1 080 pixels
    Display aspect ratio : 16:9
    Frame rate mode : Constant
    Frame rate : 23.976 (24000/1001) FPS
    Color space : YUV
    Chroma subsampling : 4:2:0
    Bit depth : 8 bits
    Scan type : Progressive
    Bits/(Pixel*Frame) : 0.124
    Stream size : 6.94 GiB (86%)
    Language : English
    Default : Yes
    Forced : No
    Color range : Limited
    Color primaries : BT.709
    Transfer characteristics : BT.709
    Matrix coefficients : BT.709

    Audio #1
    ID : 2
    Format : E-AC-3 JOC
    Format/Info : Enhanced AC-3 with Joint Object Coding
    Commercial name : Dolby Digital Plus with Dolby Atmos
    Codec ID : A_EAC3
    Duration : 2 h 41 min
    Bit rate mode : Constant
    Bit rate : 768 kb/s
    Channel(s) : 6 channels
    Channel layout : L R C LFE Ls Rs
    Sampling rate : 48.0 kHz
    Frame rate : 31.250 FPS (1536 SPF)
    Compression mode : Lossy
    Stream size : 886 MiB (11%)
    Title : English (DD+ Atmos 5.1 - D+)
    Language : English
    Service kind : Complete Main
    Default : No
    Forced : No
    Complexity index : 16
    Number of dynamic objects : 15
    Bed channel count : 1 channel
    Bed channel configuration : LFE

    Audio #2
    ID : 3
    Format : E-AC-3
    Format/Info : Enhanced AC-3
    Commercial name : Dolby Digital Plus
    Codec ID : A_EAC3
    Duration : 2 h 41 min
    Bit rate mode : Constant
    Bit rate : 192 kb/s
    Channel(s) : 6 channels
    Channel layout : L R C LFE Ls Rs
    Sampling rate : 48.0 kHz
    Frame rate : 31.250 FPS (1536 SPF)
    Compression mode : Lossy
    Stream size : 222 MiB (3%)
    Title : Thai (DD+ 5.1 - Hotstar)
    Language : Thai
    Service kind : Complete Main
    Default : Yes
    Forced : No

    Text #1
    ID : 4
    Format : UTF-8
    Codec ID : S_TEXT/UTF8
    Codec ID/Info : UTF-8 Plain Text
    Duration : 2 h 38 min
    Bit rate : 55 b/s
    Frame rate : 0.255 FPS
    Count of elements : 2427
    Stream size : 64.0 KiB (0%)
    Title : English (SRT - Hotstar)
    Language : English
    Default : No
    Forced : No

    Text #2
    ID : 5
    Format : UTF-8
    Codec ID : S_TEXT/UTF8
    Codec ID/Info : UTF-8 Plain Text
    Duration : 2 h 41 min
    Bit rate : 90 b/s
    Frame rate : 0.184 FPS
    Count of elements : 1777
    Stream size : 106 KiB (0%)
    Title : Thai (SRT - Hotstar)
    Language : Thai
    Default : Yes
    Forced : No






    Black.Panther.Wakanda.Forever.2022.IMAX.1080p.DSNP .WEB-DL.DDP5.1.Atmos.H.264.mkv
    http://www.filecondo.com/dl.php?f=k402d31Pnaq0
    8.61 GB

    Black.Panther.Wakanda.Forever.2022.Thai.mkv
    http://www.filecondo.com/dl.php?f=5878751PnbSM
    2.65 GB


    Black.Panther.Wakanda.Forever.2022.IMAX.DDP5.1.Atm os.mkv
    http://www.filecondo.com/dl.php?f=t2ca7c1PnN55
    4.19 GB

    Black.Panther.Wakanda.Forever.2022.1080p.IMAX.DSNP .WEB-DL.HEVC.H265.mkv
    http://www.filecondo.com/dl.php?f=rf10671PnN4f
    6.8 GB

    Black.Panther.Wakanda.Forever.2022.1080p.DDP5.1.At mos.H.264_GOLD_CUP.mkv
    http://www.filecondo.com/dl.php?f=y6d6991PnN36
    4.92 GB

    Black_Panther-_Wakanda_Forever_(2022)_แบล็ค_แพนเธอร์-_วาคานด้าจงเจริญ_1080p..ts
    http://www.filecondo.com/dl.php?f=U5b1e01PnN1Y
    4.34 GB

    Black_Panther_Wakanda_Forever_(2022)_HD.mkv
    http://www.filecondo.com/dl.php?f=B541f41PnN0K
    1.86 GB

    Black_Panther_Wakanda_Forever_(2022)_FHD.mkv
    http://www.filecondo.com/dl.php?f=J2a4db1PnMZZ
    2.9 GB

    Black_Panther_-_Wakanda_Forever_(2022).mkv
    http://www.filecondo.com/dl.php?f=b87c9e1PnMZ4
    5.52 GB

  2. The Following 8 Users Say Thank You to Duckload.us For This Useful Post:

    agg001 (02-02-2023), Eternallove (02-03-2023), Jodz14 (02-03-2023), noi54 (02-01-2023), petpina2010 (02-03-2023), sawara (02-01-2023), Timarat (07-06-2023), Wesker_TOT (02-02-2023)

  3. #2
    Senior Member
    สมัครเมื่อ
    Dec 2013
    โพสต์
    1,067
    Thanks
    1,031
    Thanked 0 Times in 0 Posts
    ขอบคุณครับ

  4. #3
    Senior Member
    สมัครเมื่อ
    Jan 2011
    โพสต์
    848
    Thanks
    1,154
    Thanked 0 Times in 0 Posts
    ขอบคุณครับ

  5. #4
    Senior Member
    สมัครเมื่อ
    Jul 2012
    โพสต์
    8,660
    Thanks
    0
    Thanked 0 Times in 0 Posts
    ขอบคุณมากจ้า

  6. #5
    Senior Member
    สมัครเมื่อ
    Oct 2013
    โพสต์
    2,536
    Thanks
    0
    Thanked 0 Times in 0 Posts
    ขอบคุณครับ

  7. #6
    Senior Member
    สมัครเมื่อ
    Dec 2013
    โพสต์
    6,241
    Thanks
    8,224
    Thanked 0 Times in 0 Posts
    ขอบคุณครับ...

  8. #7
    Senior Member
    สมัครเมื่อ
    Jan 2019
    โพสต์
    104
    Thanks
    0
    Thanked 0 Times in 0 Posts
    ขอบคุณครับ

  9. #8
    Senior Member รูปส่วนตัว petpina2010
    สมัครเมื่อ
    Jun 2020
    โพสต์
    252
    Thanks
    252
    Thanked 0 Times in 0 Posts
    ขอบคุณครับ

  10. #9
    Senior Member
    สมัครเมื่อ
    Jul 2013
    โพสต์
    3,665
    Thanks
    0
    Thanked 0 Times in 0 Posts
    ขอบคุรครับ

+ ตอบกลับกระทู้

ข้อมูลกระทู้

Users Browsing this Thread

ในขณะนี้มี 1 ท่านดูกระทู้อยู่. (0 สมาชิกและ 1 ผู้เยี่ยมชม)

     

กฎการโพสต์ข้อความ

  • ท่าน ไม่สามารถ ตั้งกระทู้ใหม่ได้
  • ท่าน ไม่สามารถ ตอบกระทู้ได้
  • ท่าน ไม่สามารถ แนบไฟล์ได้
  • ท่าน ไม่สามารถ แก้ไขข้อความโพสต์ได้
  • BB code สถานะ เปิด
  • Smilies สถานะ เปิด
  • [IMG] สถานะ เปิด
  • HTML สถานะ ปิด