+ ตอบกลับกระทู้
สรุปผลการค้นหา 1 ถึง 2 จากทั้งหมด 2
  1. #1
    Administrators รูปส่วนตัว Duckload.us
    สมัครเมื่อ
    Dec 2010
    โพสต์
    151,817
    Thanks
    7
    Thanked 158,780 Times in 69,420 Posts

    Lightbulb [เกาหลี]-[NF] Love to Hate You (2023) ยี้ให้หนัก รักให้เข็ด [Complete 10 Episodes]-WEB-DL.H.265.1080p. [Master]-[พากย์ไทย/เกาหลี/อังกฤษ บรรยายไทย]




    เธอเป็นทนายไม่ยอมคนและไม่ทนต่อความอยุติธรรม ส่วนเขาเป็นดาราดังที่ชอบข่มเพื่อนนักแสดงไม่ให้ข้าม หน้าข้ามตา แต่ใครจะไปรู้ว่า ข้อตกลงแรกเริ่มจะมีหัวใจเพิ่มเข้าไปในสัญญา

    Quote:
    Video
    ID : 1
    Format : HEVC
    Format/Info : High Efficiency Video Coding
    Format profile : Main 10@L4@Main
    HDR format : Dolby Vision, Version 1.0, dvhe.08.03, BL+RPU, HDR10 compatible / SMPTE ST 2086, HDR10 compatible
    Codec ID : V_MPEGH/ISO/HEVC
    Duration : 53 min 6 s
    Bit rate : 2 835 kb/s
    Width : 1 920 pixels
    Height : 1 080 pixels
    Display aspect ratio : 16:9
    Frame rate mode : Constant
    Frame rate : 23.976 (24000/1001) FPS
    Color space : YUV
    Chroma subsampling : 4:2:0 (Type 2)
    Bit depth : 10 bits
    Bits/(Pixel*Frame) : 0.057
    Stream size : 1.05 GiB (60%)
    Language : Korean
    Default : Yes
    Forced : No
    Color range : Limited
    Color primaries : BT.2020
    Transfer characteristics : PQ
    Matrix coefficients : BT.2020 non-constant
    Mastering display color primaries : Display P3
    Mastering display luminance : min: 0.0001 cd/m2, max: 1000 cd/m2
    Maximum Content Light Level : 1109 cd/m2
    Maximum Frame-Average Light Level : 176 cd/m2

    Audio #1
    ID : 2
    Format : AC-3
    Format/Info : Audio Coding 3
    Commercial name : Dolby Digital
    Codec ID : A_AC3
    Duration : 54 min 48 s
    Bit rate mode : Constant
    Bit rate : 448 kb/s
    Channel(s) : 6 channels
    Channel layout : L R C LFE Ls Rs
    Sampling rate : 48.0 kHz
    Frame rate : 31.250 FPS (1536 SPF)
    Compression mode : Lossy
    Stream size : 176 MiB (10%)
    Language : Thai
    Service kind : Complete Main
    Default : Yes
    Forced : No

    Audio #2
    ID : 3
    Format : E-AC-3 JOC
    Format/Info : Enhanced AC-3 with Joint Object Coding
    Commercial name : Dolby Digital Plus with Dolby Atmos
    Codec ID : A_EAC3
    Duration : 54 min 48 s
    Bit rate mode : Constant
    Bit rate : 768 kb/s
    Channel(s) : 6 channels
    Channel layout : L R C LFE Ls Rs
    Sampling rate : 48.0 kHz
    Frame rate : 31.250 FPS (1536 SPF)
    Compression mode : Lossy
    Stream size : 301 MiB (17%)
    Language : Korean
    Service kind : Complete Main
    Default : Yes
    Forced : No
    Complexity index : 16
    Number of dynamic objects : 15
    Bed channel count : 1 channel
    Bed channel configuration : LFE

    Audio #3
    ID : 4
    Format : E-AC-3
    Format/Info : Enhanced AC-3
    Commercial name : Dolby Digital Plus
    Codec ID : A_EAC3
    Duration : 54 min 48 s
    Bit rate mode : Constant
    Bit rate : 640 kb/s
    Channel(s) : 6 channels
    Channel layout : L R C LFE Ls Rs
    Sampling rate : 48.0 kHz
    Frame rate : 31.250 FPS (1536 SPF)
    Compression mode : Lossy
    Stream size : 251 MiB (14%)
    Language : English
    Service kind : Complete Main
    Default : No
    Forced : No

    Text #1
    ID : 5
    Format : UTF-8
    Codec ID : S_TEXT/UTF8
    Codec ID/Info : UTF-8 Plain Text
    Duration : 52 min 50 s
    Bit rate : 201 b/s
    Frame rate : 0.324 FPS
    Count of elements : 1027
    Stream size : 78.1 KiB (0%)
    Language : Thai
    Default : Yes
    Forced : No

    Text #2
    ID : 6
    Format : UTF-8
    Codec ID : S_TEXT/UTF8
    Codec ID/Info : UTF-8 Plain Text
    Duration : 48 min 37 s
    Bit rate : 112 b/s
    Frame rate : 0.447 FPS
    Count of elements : 1304
    Stream size : 40.0 KiB (0%)
    Language : Korean
    Default : No
    Forced : No

    Text #3
    ID : 7
    Format : UTF-8
    Codec ID : S_TEXT/UTF8
    Codec ID/Info : UTF-8 Plain Text
    Duration : 48 min 37 s
    Bit rate : 150 b/s
    Frame rate : 0.447 FPS
    Count of elements : 1305
    Stream size : 53.6 KiB (0%)
    Title : SDH
    Language : Korean
    Default : No
    Forced : No

    Text #4
    ID : 8
    Format : UTF-8
    Codec ID : S_TEXT/UTF8
    Codec ID/Info : UTF-8 Plain Text
    Duration : 43 min 52 s
    Bit rate : 1 b/s
    Frame rate : 0.006 FPS
    Count of elements : 17
    Stream size : 456 Bytes (0%)
    Title : Forced
    Language : English
    Default : No
    Forced : Yes

    Text #5
    ID : 9
    Format : UTF-8
    Codec ID : S_TEXT/UTF8
    Codec ID/Info : UTF-8 Plain Text
    Duration : 47 min 42 s
    Bit rate : 98 b/s
    Frame rate : 0.324 FPS
    Count of elements : 929
    Stream size : 34.4 KiB (0%)
    Language : English
    Default : No
    Forced : No

    Text #6
    ID : 10
    Format : UTF-8
    Codec ID : S_TEXT/UTF8
    Codec ID/Info : UTF-8 Plain Text
    Duration : 50 min 29 s
    Bit rate : 107 b/s
    Frame rate : 0.364 FPS
    Count of elements : 1102
    Stream size : 39.6 KiB (0%)
    Title : SDH
    Language : English
    Default : No
    Forced : No

    Text #7
    ID : 11
    Format : UTF-8
    Codec ID : S_TEXT/UTF8
    Codec ID/Info : UTF-8 Plain Text
    Duration : 52 min 5 s
    Bit rate : 137 b/s
    Frame rate : 0.299 FPS
    Count of elements : 933
    Stream size : 52.6 KiB (0%)
    Language : Arabic
    Default : No
    Forced : No

    Text #8
    ID : 12
    Format : UTF-8
    Codec ID : S_TEXT/UTF8
    Codec ID/Info : UTF-8 Plain Text
    Duration : 52 min 50 s
    Bit rate : 75 b/s
    Frame rate : 0.280 FPS
    Count of elements : 889
    Stream size : 29.2 KiB (0%)
    Language : Czech
    Default : No
    Forced : No

    Text #9
    ID : 13
    Format : UTF-8
    Codec ID : S_TEXT/UTF8
    Codec ID/Info : UTF-8 Plain Text
    Duration : 52 min 50 s
    Bit rate : 68 b/s
    Frame rate : 0.263 FPS
    Count of elements : 834
    Stream size : 26.6 KiB (0%)
    Language : Danish
    Default : No
    Forced : No

    Text #10
    ID : 14
    Format : UTF-8
    Codec ID : S_TEXT/UTF8
    Codec ID/Info : UTF-8 Plain Text
    Duration : 52 min 5 s
    Bit rate : 74 b/s
    Frame rate : 0.276 FPS
    Count of elements : 863
    Stream size : 28.6 KiB (0%)
    Language : German
    Default : No
    Forced : No

    Text #11
    ID : 15
    Format : UTF-8
    Codec ID : S_TEXT/UTF8
    Codec ID/Info : UTF-8 Plain Text
    Duration : 52 min 48 s
    Bit rate : 114 b/s
    Frame rate : 0.284 FPS
    Count of elements : 899
    Stream size : 44.2 KiB (0%)
    Language : Greek
    Default : No
    Forced : No

    Text #12
    ID : 16
    Format : UTF-8
    Codec ID : S_TEXT/UTF8
    Codec ID/Info : UTF-8 Plain Text
    Duration : 52 min 50 s
    Bit rate : 67 b/s
    Frame rate : 0.276 FPS
    Count of elements : 874
    Stream size : 26.0 KiB (0%)
    Title : Latin American
    Language : Spanish (Latin America)
    Default : No
    Forced : No

    Text #13
    ID : 17
    Format : UTF-8
    Codec ID : S_TEXT/UTF8
    Codec ID/Info : UTF-8 Plain Text
    Duration : 52 min 50 s
    Bit rate : 72 b/s
    Frame rate : 0.288 FPS
    Count of elements : 913
    Stream size : 28.1 KiB (0%)
    Language : Spanish (ES)
    Default : No
    Forced : No

    Text #14
    ID : 18
    Format : UTF-8
    Codec ID : S_TEXT/UTF8
    Codec ID/Info : UTF-8 Plain Text
    Duration : 52 min 47 s
    Bit rate : 70 b/s
    Frame rate : 0.232 FPS
    Count of elements : 735
    Stream size : 27.1 KiB (0%)
    Language : Finnish
    Default : No
    Forced : No

    Text #15
    ID : 19
    Format : UTF-8
    Codec ID : S_TEXT/UTF8
    Codec ID/Info : UTF-8 Plain Text
    Duration : 52 min 50 s
    Bit rate : 69 b/s
    Frame rate : 0.285 FPS
    Count of elements : 905
    Stream size : 27.0 KiB (0%)
    Language : fil
    Default : No
    Forced : No

    Text #16
    ID : 20
    Format : UTF-8
    Codec ID : S_TEXT/UTF8
    Codec ID/Info : UTF-8 Plain Text
    Duration : 52 min 5 s
    Bit rate : 71 b/s
    Frame rate : 0.290 FPS
    Count of elements : 907
    Stream size : 27.1 KiB (0%)
    Language : French
    Default : No
    Forced : No

    Text #17
    ID : 21
    Format : UTF-8
    Codec ID : S_TEXT/UTF8
    Codec ID/Info : UTF-8 Plain Text
    Duration : 52 min 50 s
    Bit rate : 118 b/s
    Frame rate : 0.297 FPS
    Count of elements : 941
    Stream size : 46.0 KiB (0%)
    Language : Hebrew
    Default : No
    Forced : No

    Text #18
    ID : 22
    Format : UTF-8
    Codec ID : S_TEXT/UTF8
    Codec ID/Info : UTF-8 Plain Text
    Duration : 52 min 50 s
    Bit rate : 65 b/s
    Frame rate : 0.279 FPS
    Count of elements : 884
    Stream size : 25.4 KiB (0%)
    Language : Croatian
    Default : No
    Forced : No

    Text #19
    ID : 23
    Format : UTF-8
    Codec ID : S_TEXT/UTF8
    Codec ID/Info : UTF-8 Plain Text
    Duration : 52 min 50 s
    Bit rate : 71 b/s
    Frame rate : 0.276 FPS
    Count of elements : 876
    Stream size : 27.7 KiB (0%)
    Language : Hungarian
    Default : No
    Forced : No

    Text #20
    ID : 24
    Format : UTF-8
    Codec ID : S_TEXT/UTF8
    Codec ID/Info : UTF-8 Plain Text
    Duration : 52 min 50 s
    Bit rate : 67 b/s
    Frame rate : 0.296 FPS
    Count of elements : 940
    Stream size : 26.1 KiB (0%)
    Language : Indonesian
    Default : No
    Forced : No

    Text #21
    ID : 25
    Format : UTF-8
    Codec ID : S_TEXT/UTF8
    Codec ID/Info : UTF-8 Plain Text
    Duration : 52 min 50 s
    Bit rate : 67 b/s
    Frame rate : 0.267 FPS
    Count of elements : 845
    Stream size : 26.1 KiB (0%)
    Language : Italian
    Default : No
    Forced : No

    Text #22
    ID : 26
    Format : UTF-8
    Codec ID : S_TEXT/UTF8
    Codec ID/Info : UTF-8 Plain Text
    Duration : 52 min 50 s
    Bit rate : 79 b/s
    Frame rate : 0.286 FPS
    Count of elements : 906
    Stream size : 30.8 KiB (0%)
    Language : Japanese
    Default : No
    Forced : No

    Text #23
    ID : 27
    Format : UTF-8
    Codec ID : S_TEXT/UTF8
    Codec ID/Info : UTF-8 Plain Text
    Duration : 52 min 50 s
    Bit rate : 70 b/s
    Frame rate : 0.299 FPS
    Count of elements : 948
    Stream size : 27.3 KiB (0%)
    Language : Malay
    Default : No
    Forced : No

    Text #24
    ID : 28
    Format : UTF-8
    Codec ID : S_TEXT/UTF8
    Codec ID/Info : UTF-8 Plain Text
    Duration : 52 min 50 s
    Bit rate : 67 b/s
    Frame rate : 0.246 FPS
    Count of elements : 781
    Stream size : 26.0 KiB (0%)
    Language : Norwegian Bokmal
    Default : No
    Forced : No

    Text #25
    ID : 29
    Format : UTF-8
    Codec ID : S_TEXT/UTF8
    Codec ID/Info : UTF-8 Plain Text
    Duration : 52 min 50 s
    Bit rate : 68 b/s
    Frame rate : 0.284 FPS
    Count of elements : 899
    Stream size : 26.7 KiB (0%)
    Language : Dutch
    Default : No
    Forced : No

    Text #26
    ID : 30
    Format : UTF-8
    Codec ID : S_TEXT/UTF8
    Codec ID/Info : UTF-8 Plain Text
    Duration : 52 min 50 s
    Bit rate : 67 b/s
    Frame rate : 0.313 FPS
    Count of elements : 991
    Stream size : 26.3 KiB (0%)
    Language : Polish
    Default : No
    Forced : No

    Text #27
    ID : 31
    Format : UTF-8
    Codec ID : S_TEXT/UTF8
    Codec ID/Info : UTF-8 Plain Text
    Duration : 52 min 50 s
    Bit rate : 70 b/s
    Frame rate : 0.293 FPS
    Count of elements : 930
    Stream size : 27.1 KiB (0%)
    Title : Brazilian
    Language : Portuguese (BR)
    Default : No
    Forced : No

    Text #28
    ID : 32
    Format : UTF-8
    Codec ID : S_TEXT/UTF8
    Codec ID/Info : UTF-8 Plain Text
    Duration : 52 min 50 s
    Bit rate : 73 b/s
    Frame rate : 0.297 FPS
    Count of elements : 941
    Stream size : 28.6 KiB (0%)
    Language : Portuguese (PT)
    Default : No
    Forced : No

    Text #29
    ID : 33
    Format : UTF-8
    Codec ID : S_TEXT/UTF8
    Codec ID/Info : UTF-8 Plain Text
    Duration : 52 min 50 s
    Bit rate : 85 b/s
    Frame rate : 0.286 FPS
    Count of elements : 906
    Stream size : 33.0 KiB (0%)
    Language : Romanian
    Default : No
    Forced : No

    Text #30
    ID : 34
    Format : UTF-8
    Codec ID : S_TEXT/UTF8
    Codec ID/Info : UTF-8 Plain Text
    Duration : 52 min 50 s
    Bit rate : 70 b/s
    Frame rate : 0.277 FPS
    Count of elements : 878
    Stream size : 27.2 KiB (0%)
    Language : Swedish
    Default : No
    Forced : No

    Text #31
    ID : 35
    Format : UTF-8
    Codec ID : S_TEXT/UTF8
    Codec ID/Info : UTF-8 Plain Text
    Duration : 52 min 50 s
    Bit rate : 72 b/s
    Frame rate : 0.269 FPS
    Count of elements : 854
    Stream size : 28.1 KiB (0%)
    Language : Turkish
    Default : No
    Forced : No

    Text #32
    ID : 36
    Format : UTF-8
    Codec ID : S_TEXT/UTF8
    Codec ID/Info : UTF-8 Plain Text
    Duration : 52 min 50 s
    Bit rate : 111 b/s
    Frame rate : 0.286 FPS
    Count of elements : 907
    Stream size : 43.2 KiB (0%)
    Language : Ukrainian
    Default : No
    Forced : No

    Text #33
    ID : 37
    Format : UTF-8
    Codec ID : S_TEXT/UTF8
    Codec ID/Info : UTF-8 Plain Text
    Duration : 52 min 5 s
    Bit rate : 106 b/s
    Frame rate : 0.297 FPS
    Count of elements : 928
    Stream size : 40.6 KiB (0%)
    Language : Vietnamese
    Default : No
    Forced : No

    Text #34
    ID : 38
    Format : UTF-8
    Codec ID : S_TEXT/UTF8
    Codec ID/Info : UTF-8 Plain Text
    Duration : 52 min 50 s
    Bit rate : 80 b/s
    Frame rate : 0.312 FPS
    Count of elements : 989
    Stream size : 31.3 KiB (0%)
    Title : Simplified
    Language : Chinese (Simplied)
    Default : No
    Forced : No

    Text #35
    ID : 39
    Format : UTF-8
    Codec ID : S_TEXT/UTF8
    Codec ID/Info : UTF-8 Plain Text
    Duration : 48 min 28 s
    Bit rate : 84 b/s
    Frame rate : 0.353 FPS
    Count of elements : 1026
    Stream size : 30.0 KiB (0%)
    Title : Traditional
    Language : Chinese (Traditional)
    Default : No
    Forced : No

    Menu
    00:49:04.000 : en:End Credits




    Love.to.Hate.You.S01E10.A.Passionate.Goodbye.1080p .NF.WEB-DL.DUAL.DDP5.1.Atmos.DV.HDR10.H.265-MESSI.mkv
    http://www.filecondo.com/dl.php?f=D16e181PrjYe

    Love.to.Hate.You.S01E09.You.Made.Me.Who.I.Am.1080p .NF.WEB-DL.DUAL.DDP5.1.Atmos.DV.HDR10.H.265-MESSI.mkv
    http://www.filecondo.com/dl.php?f=J47f3e1PrjRO

    Love.to.Hate.You.S01E08.The.Way.You.Change.Me.1080 p.NF.WEB-DL.DUAL.DDP5.1.Atmos.DV.HDR10.H.265-MESSI.mkv
    http://www.filecondo.com/dl.php?f=W255ac1PrjIx

    Love.to.Hate.You.S01E07.Trigonometry.The.Love.Tria ngle.Edition.1080p.NF.WEB-DL.DUAL.DDP5.1.Atmos.DV.HDR10.H.265-MESSI.mkv
    http://www.filecondo.com/dl.php?f=28ee081PrjAL

    Love.to.Hate.You.S01E06.Femme.Fatale.vs.Homme.Fata le.1080p.NF.WEB-DL.DUAL.DDP5.1.Atmos.DV.HDR10.H.265-MESSI.mkv
    http://www.filecondo.com/dl.php?f=af14051Prjqk

    Love.to.Hate.You.S01E05.Love.is.Just.an.Experiment .Life.is.the.Real.Thing.1080p.NF.WEB-DL.DUAL.DDP5.1.Atmos.DV.HDR10.H.265-MESSI.mkv
    http://www.filecondo.com/dl.php?f=Sebe061PrjgH

    Love.to.Hate.You.S01E04.You.Are.Not.What.I.Expecte d.1080p.NF.WEB-DL.DUAL.DDP5.1.Atmos.DV.HDR10.H.265-MESSI.mkv
    http://www.filecondo.com/dl.php?f=J1cfd61Prjcb

    Love.to.Hate.You.S01E03.Nice.Guys.Get.a.Pass.Bad.B oys.Have.It.Coming.1080p.NF.WEB-DL.DUAL.DDP5.1.Atmos.DV.HDR10.H.265-MESSI.mkv
    http://www.filecondo.com/dl.php?f=tb39471Prj87

    Love.to.Hate.You.S01E02.Bad.Boy.1080p.NF.WEB-DL.DUAL.DDP5.1.Atmos.DV.HDR10.H.265-MESSI.mkv
    http://www.filecondo.com/dl.php?f=T0c1921Prj0W

    Love.to.Hate.You.S01E01.Bad.Girl.1080p.NF.WEB-DL.DUAL.DDP5.1.Atmos.DV.HDR10.H.265-MESSI.mkv
    http://www.filecondo.com/dl.php?f=o52dd11PriVZ

  2. #2
    Senior Member
    สมัครเมื่อ
    Jul 2012
    โพสต์
    8,660
    Thanks
    0
    Thanked 0 Times in 0 Posts
    ขอบคุณมากจ้า

+ ตอบกลับกระทู้

ข้อมูลกระทู้

Users Browsing this Thread

ในขณะนี้มี 1 ท่านดูกระทู้อยู่. (0 สมาชิกและ 1 ผู้เยี่ยมชม)

     

กฎการโพสต์ข้อความ

  • ท่าน ไม่สามารถ ตั้งกระทู้ใหม่ได้
  • ท่าน ไม่สามารถ ตอบกระทู้ได้
  • ท่าน ไม่สามารถ แนบไฟล์ได้
  • ท่าน ไม่สามารถ แก้ไขข้อความโพสต์ได้
  • BB code สถานะ เปิด
  • Smilies สถานะ เปิด
  • [IMG] สถานะ เปิด
  • HTML สถานะ ปิด