+ ตอบกลับกระทู้
สรุปผลการค้นหา 1 ถึง 3 จากทั้งหมด 3
  1. #1
    Administrators รูปส่วนตัว Duckload.us
    สมัครเมื่อ
    Dec 2010
    โพสต์
    151,817
    Thanks
    7
    Thanked 158,780 Times in 69,420 Posts

    Lightbulb [เกาหลี][NETFLIX] Urban Myths (2022) ผีดุสุดโซล [พากย์:ไทย/เกาหลี 5.1][SUB:ไทย+อังกฤษ][1080i/p] [EAC-3][h264][ซับไทยNETFLIX PGS+Vobsub+SRT]



    2022 16+ 1 ชั่วโมง 57 นาที
    ในภาพยนตร์รวมเรื่องราวสยองขวัญรอบตัว พบกับ 10 ตำนานพื้นบ้านสุดหลอน ทั้งสิ่งลี้ลับอันชั่วร้าย การเผชิญหน้าสุดสะพรึง และสิ่งมีชีวิตชวนสยอง

    นักแสดง: คิมโดยุน, อียอลอึม, อีโฮวอน, เพิ่มเติม
    แนว: เกาหลี, ภาพยนตร์สยองขวัญ
    ภาพยนตร์เรื่องนี้: น่ากลัว









    Format : Matroska
    Format version : Version 4
    File size : 4.89 GiB
    Duration : 1 h 57 min
    Overall bit rate mode : Variable
    Overall bit rate : 5 935 kb/s
    Movie name : Urban.Myths.2022.1080p.NF.APP-DL.DDP5.1.H264@Argon
    Encoded date : UTC 2023-03-10 10:46:19
    Writing application : mkvmerge v74.0.0 ('You Oughta Know') 64-bit
    Writing library : libebml v1.4.4 + libmatroska v1.7.1
    Cover : Yes
    Attachments : cover.png

    Video
    ID : 1
    Format : AVC
    Format/Info : Advanced Video Codec
    Format profile : High@L4
    Format settings : CABAC / 4 Ref Frames
    Format settings, CABAC : Yes
    Format settings, Reference fra : 4 frames
    Codec ID : V_MPEG4/ISO/AVC
    Duration : 1 h 57 min
    Bit rate mode : Variable
    Bit rate : 5 141 kb/s
    Maximum bit rate : 20.0 Mb/s
    Width : 1 920 pixels
    Height : 1 080 pixels
    Display aspect ratio : 16:9
    Frame rate mode : Constant
    Frame rate : 25.000 FPS
    Color space : YUV
    Chroma subsampling : 4:2:0
    Bit depth : 8 bits
    Scan type : Progressive
    Bits/(Pixel*Frame) : 0.099
    Stream size : 4.24 GiB (87%)
    Writing library : x264 core 148 r2727 7d026e8
    Encoding settings : cabac=1 / ref=4 / deblock=1:0:0 / analyse=0x3:0x111 / me=umh / subme=10 / psy=1 / psy_rd=1.00:0.00 / mixed_ref=1 / me_range=120 / chroma_me=1 / trellis=2 / 8x8dct=1 / cqm=0 / deadzone=21,11 / fast_pskip=1 / chroma_qp_offset=-2 / threads=6 / lookahead_threads=1 / sliced_threads=0 / nr=0 / decimate=1 / interlaced=0 / bluray_compat=0 / stitchable=1 / constrained_intra=0 / bframes=16 / b_pyramid=2 / b_adapt=2 / b_bias=0 / direct=3 / weightb=1 / open_gop=0 / weightp=2 / keyint=250 / keyint_min=126 / scenecut=0 / intra_refresh=0 / rc_lookahead=250 / rc=crf / mbtree=1 / crf=16.0 / qcomp=0.50 / qpmin=6 / qpmax=51 / qpstep=4 / vbv_maxrate=20000 / vbv_bufsize=25000 / crf_max=0.0 / nal_hrd=vbr / filler=0 / ip_ratio=1.40 / aq=1:0.80
    Default : Yes
    Forced : No

    Audio #1
    ID : 2
    Format : E-AC-3
    Format/Info : Enhanced AC-3
    Commercial name : Dolby Digital Plus
    Codec ID : A_EAC3
    Duration : 1 h 57 min
    Bit rate mode : Constant
    Bit rate : 128 kb/s
    Channel(s) : 2 channels
    Channel layout : L R
    Sampling rate : 48.0 kHz
    Frame rate : 31.250 FPS (1536 SPF)
    Compression mode : Lossy
    Stream size : 108 MiB (2%)
    Title : Thai-DDP 2.0
    Language : Thai (TH)
    Service kind : Complete Main
    Default : Yes
    Forced : Yes

    Audio #2
    ID : 3
    Format : E-AC-3
    Format/Info : Enhanced AC-3
    Commercial name : Dolby Digital Plus
    Codec ID : A_EAC3
    Duration : 1 h 57 min
    Bit rate mode : Constant
    Bit rate : 640 kb/s
    Channel(s) : 6 channels
    Channel layout : L R C LFE Ls Rs
    Sampling rate : 48.0 kHz
    Frame rate : 31.250 FPS (1536 SPF)
    Compression mode : Lossy
    Stream size : 540 MiB (11%)
    Title : Korean-DDP 5.1
    Language : Korean (KR)
    Service kind : Complete Main
    Default : Yes
    Forced : No

    Text #1
    ID : 4
    Format : PGS
    Muxing mode : zlib
    Codec ID : S_HDMV/PGS
    Codec ID/Info : Picture based subtitle format used on BDs/HD-DVDs
    Duration : 1 h 54 min
    Bit rate : 1 538 b/s
    Frame rate : 0.015 FPS
    Count of elements : 104
    Stream size : 1.26 MiB (0%)
    Title : Thai-FORCED PGS From Original NETFLIX
    Language : Thai
    Default : Yes
    Forced : Yes

    Text #2
    ID : 5
    Format : VobSub
    Muxing mode : zlib
    Codec ID : S_VOBSUB
    Codec ID/Info : Picture based subtitle format used on DVDs
    Duration : 1 h 54 min
    Bit rate : 302 b/s
    Frame rate : 0.008 FPS
    Count of elements : 52
    Stream size : 253 KiB (0%)
    Title : Thai-FORCED VOBSUB From Original NETFLIX
    Language : Thai
    Default : Yes
    Forced : No

    Text #3
    ID : 6
    Format : PGS
    Muxing mode : zlib
    Codec ID : S_HDMV/PGS
    Codec ID/Info : Picture based subtitle format used on BDs/HD-DVDs
    Duration : 1 h 56 min
    Bit rate : 24.7 kb/s
    Frame rate : 0.260 FPS
    Count of elements : 1824
    Stream size : 20.7 MiB (0%)
    Title : Thai-PGS From Original NETFLIX
    Language : Thai
    Default : Yes
    Forced : No

    Text #4
    ID : 7
    Format : VobSub
    Muxing mode : zlib
    Codec ID : S_VOBSUB
    Codec ID/Info : Picture based subtitle format used on DVDs
    Duration : 1 h 56 min
    Bit rate : 4 802 b/s
    Frame rate : 0.130 FPS
    Count of elements : 912
    Stream size : 4.02 MiB (0%)
    Title : Thai-VOBSUB From Original NETFLIX
    Language : Thai
    Default : Yes
    Forced : No

    Text #5
    ID : 8
    Format : UTF-8
    Codec ID : S_TEXT/UTF8
    Codec ID/Info : UTF-8 Plain Text
    Duration : 1 h 54 min
    Bit rate : 3 b/s
    Frame rate : 0.008 FPS
    Count of elements : 52
    Stream size : 2.93 KiB (0%)
    Title : Thai-FORCED SRT
    Language : Thai
    Default : Yes
    Forced : No

    Text #6
    ID : 9
    Format : UTF-8
    Codec ID : S_TEXT/UTF8
    Codec ID/Info : UTF-8 Plain Text
    Duration : 1 h 56 min
    Bit rate : 58 b/s
    Frame rate : 0.130 FPS
    Count of elements : 912
    Stream size : 50.2 KiB (0%)
    Title : Thai-SRT
    Language : Thai
    Default : Yes
    Forced : No

    Text #7
    ID : 10
    Format : UTF-8
    Codec ID : S_TEXT/UTF8
    Codec ID/Info : UTF-8 Plain Text
    Duration : 1 h 52 min
    Bit rate : 26 b/s
    Frame rate : 0.131 FPS
    Count of elements : 885
    Stream size : 21.6 KiB (0%)
    Title : English-SRT
    Language : English
    Default : Yes
    Forced : No

    Urban.Myths.2022.1080p.NF.APP-DL.DDP5.1.H264.mkv
    http://www.filecondo.com/dl.php?f=q698771PC29a
    5.25 GB

  2. The Following User Says Thank You to Duckload.us For This Useful Post:

    Wesker_TOT (03-17-2023)

  3. #2
    Senior Member
    สมัครเมื่อ
    Dec 2013
    โพสต์
    6,241
    Thanks
    8,224
    Thanked 0 Times in 0 Posts
    ขอบคุณครับ...

  4. #3
    Senior Member
    สมัครเมื่อ
    Jul 2012
    โพสต์
    8,660
    Thanks
    0
    Thanked 0 Times in 0 Posts
    ขอบคุณมากจ้า

+ ตอบกลับกระทู้

ข้อมูลกระทู้

Users Browsing this Thread

ในขณะนี้มี 1 ท่านดูกระทู้อยู่. (0 สมาชิกและ 1 ผู้เยี่ยมชม)

     

กฎการโพสต์ข้อความ

  • ท่าน ไม่สามารถ ตั้งกระทู้ใหม่ได้
  • ท่าน ไม่สามารถ ตอบกระทู้ได้
  • ท่าน ไม่สามารถ แนบไฟล์ได้
  • ท่าน ไม่สามารถ แก้ไขข้อความโพสต์ได้
  • BB code สถานะ เปิด
  • Smilies สถานะ เปิด
  • [IMG] สถานะ เปิด
  • HTML สถานะ ปิด