+ ตอบกลับกระทู้
สรุปผลการค้นหา 1 ถึง 3 จากทั้งหมด 3
  1. #1
    Administrators รูปส่วนตัว Duckload.us
    สมัครเมื่อ
    Dec 2010
    โพสต์
    151,798
    Thanks
    7
    Thanked 158,766 Times in 69,412 Posts

    Lightbulb [เกาหลี]-[NF] Bloodhounds (2023) 사 냥 개 들 [Complete 8 Episodes]-WEB-DL.H.264.1080p. [Master]-[พากย์ไทย/เกาหลี 5.1 DDP Atmos บรรยายไทย]



    อูโดฮวาน และอีซังยี รับบทนักมวยที่ร่วมมือกับเถ้าแก่ปล่อยเงินกู้ใจบุญแล ะหลานสาว โค่นล้มเจ้าหนี้นอกระบบหน้าเลือดที่ทำได้ทุกอย่างเพื ่อให้ตัวเองร่ำรวย

    Quote:
    Video
    ID : 1
    Format : AVC
    Format/Info : Advanced Video Codec
    Format profile : High@L4
    Format settings : CABAC / 4 Ref Frames
    Format settings, CABAC : Yes
    Format settings, Reference frames : 4 frames
    Codec ID : V_MPEG4/ISO/AVC
    Duration : 1 h 1 min
    Bit rate mode : Variable
    Bit rate : 2 639 kb/s
    Maximum bit rate : 20.0 Mb/s
    Width : 1 920 pixels
    Height : 1 080 pixels
    Display aspect ratio : 16:9
    Frame rate mode : Constant
    Frame rate : 23.976 (24000/1001) FPS
    Color space : YUV
    Chroma subsampling : 4:2:0
    Bit depth : 8 bits
    Scan type : Progressive
    Bits/(Pixel*Frame) : 0.053
    Stream size : 1.14 GiB (65%)
    Writing library : x264 core 148 r2727 7d026e8
    Encoding settings : cabac=1 / ref=4 / deblock=1:0:0 / analyse=0x3:0x111 / me=umh / subme=10 / psy=1 / psy_rd=1.00:0.00 / mixed_ref=1 / me_range=120 / chroma_me=1 / trellis=2 / 8x8dct=1 / cqm=0 / deadzone=21,11 / fast_pskip=1 / chroma_qp_offset=-2 / threads=6 / lookahead_threads=1 / sliced_threads=0 / nr=0 / decimate=1 / interlaced=0 / bluray_compat=0 / stitchable=1 / constrained_intra=0 / bframes=16 / b_pyramid=2 / b_adapt=2 / b_bias=0 / direct=3 / weightb=1 / open_gop=0 / weightp=2 / keyint=240 / keyint_min=121 / scenecut=0 / intra_refresh=0 / rc_lookahead=240 / rc=crf / mbtree=1 / crf=16.0 / qcomp=0.50 / qpmin=6 / qpmax=51 / qpstep=4 / vbv_maxrate=20000 / vbv_bufsize=25000 / crf_max=0.0 / nal_hrd=vbr / filler=0 / ip_ratio=1.40 / aq=1:0.80
    Default : Yes
    Forced : No

    Audio #1
    ID : 2
    Format : E-AC-3 JOC
    Format/Info : Enhanced AC-3 with Joint Object Coding
    Commercial name : Dolby Digital Plus with Dolby Atmos
    Codec ID : A_EAC3
    Duration : 1 h 1 min
    Bit rate mode : Constant
    Bit rate : 768 kb/s
    Channel(s) : 6 channels
    Channel layout : L R C LFE Ls Rs
    Sampling rate : 48.0 kHz
    Frame rate : 31.250 FPS (1536 SPF)
    Compression mode : Lossy
    Stream size : 339 MiB (19%)
    Title : เกาหลี [ต้นฉบับ]
    Language : Korean
    Service kind : Complete Main
    Default : Yes
    Forced : No
    Complexity index : 16
    Number of dynamic objects : 15
    Bed channel count : 1 channel
    Bed channel configuration : LFE

    Audio #2
    ID : 3
    Format : E-AC-3
    Format/Info : Enhanced AC-3
    Commercial name : Dolby Digital Plus
    Codec ID : A_EAC3
    Duration : 1 h 1 min
    Bit rate mode : Constant
    Bit rate : 640 kb/s
    Channel(s) : 6 channels
    Channel layout : L R C LFE Ls Rs
    Sampling rate : 48.0 kHz
    Frame rate : 31.250 FPS (1536 SPF)
    Compression mode : Lossy
    Stream size : 282 MiB (16%)
    Title : ไทย
    Language : Thai
    Service kind : Complete Main
    Default : Yes
    Forced : No

    Text #1
    ID : 4
    Format : UTF-8
    Codec ID : S_TEXT/UTF8
    Codec ID/Info : UTF-8 Plain Text
    Duration : 59 min 20 s
    Bit rate : 151 b/s
    Frame rate : 0.267 FPS
    Count of elements : 949
    Stream size : 65.8 KiB (0%)
    Title : ไทย
    Language : Thai
    Default : Yes
    Forced : No

    Text #2
    ID : 5
    Format : UTF-8
    Codec ID : S_TEXT/UTF8
    Codec ID/Info : UTF-8 Plain Text
    Duration : 59 min 20 s
    Bit rate : 3 b/s
    Frame rate : 0.008 FPS
    Count of elements : 28
    Stream size : 1.72 KiB (0%)
    Title : Thai [ForcedNarrative]
    Language : Thai
    Default : Yes
    Forced : No



    Bloodhounds_S01E08_ตอน_8.mkv
    http://www.filecondo.com/dl.php?f=vd33441Q8aXG

    Bloodhounds_S01E07_ตอน_7.mkv
    http://www.filecondo.com/dl.php?f=d74e3f1Q8ayY

    Bloodhounds_S01E06_ตอน_6.mkv
    http://www.filecondo.com/dl.php?f=u59d971Q8ap2

    Bloodhounds_S01E05_ตอน_5.mkv
    http://www.filecondo.com/dl.php?f=G91cdd1Q8anJ

    Bloodhounds_S01E04_ตอน_4.mkv
    http://www.filecondo.com/dl.php?f=m65c2b1Q8akQ

    Bloodhounds_S01E03_ตอน_3.mkv
    http://www.filecondo.com/dl.php?f=y3dfe61Q8abQ

    Bloodhounds_S01E02_ตอน_2.mkv
    http://www.filecondo.com/dl.php?f=8360521Q89Z0

    Bloodhounds_S01E01_ตอน_1.mkv
    http://www.filecondo.com/dl.php?f=t61abd1Q89Qm

  2. The Following User Says Thank You to Duckload.us For This Useful Post:

    whiteherbie (04-15-2024)

  3. #2
    Senior Member
    สมัครเมื่อ
    Jul 2012
    โพสต์
    8,660
    Thanks
    0
    Thanked 0 Times in 0 Posts
    ขอบคุณมากจ้า

  4. #3
    Senior Member
    สมัครเมื่อ
    Dec 2011
    โพสต์
    3,107
    Thanks
    677
    Thanked 0 Times in 0 Posts
    Thank you ka

+ ตอบกลับกระทู้

ข้อมูลกระทู้

Users Browsing this Thread

ในขณะนี้มี 1 ท่านดูกระทู้อยู่. (0 สมาชิกและ 1 ผู้เยี่ยมชม)

     

กฎการโพสต์ข้อความ

  • ท่าน ไม่สามารถ ตั้งกระทู้ใหม่ได้
  • ท่าน ไม่สามารถ ตอบกระทู้ได้
  • ท่าน ไม่สามารถ แนบไฟล์ได้
  • ท่าน ไม่สามารถ แก้ไขข้อความโพสต์ได้
  • BB code สถานะ เปิด
  • Smilies สถานะ เปิด
  • [IMG] สถานะ เปิด
  • HTML สถานะ ปิด